  0
SECTION
  2
HEADER
  9
$ACADVER
  1
AC1004
  9
$INSBASE
 10
0.0
 20
0.0
  9
$EXTMIN
 10
37268.55696748247
 20
-6834.82651730407
  9
$EXTMAX
 10
40743.40160987386
 20
-4771.706083857691
  9
$LIMMIN
 10
0.0
 20
0.0
  9
$LIMMAX
 10
12.0
 20
9.0
  9
$ORTHOMODE
 70
     0
  9
$REGENMODE
 70
     1
  9
$FILLMODE
 70
     1
  9
$QTEXTMODE
 70
     0
  9
$DRAGMODE
 70
     2
  9
$LTSCALE
 40
0.5
  9
$OSMODE
 70
  2175
  9
$ATTMODE
 70
     1
  9
$TEXTSIZE
 40
4.0
  9
$TRACEWID
 40
0.05
  9
$TEXTSTYLE
  7
STANDARD
  9
$CLAYER
  8
0
  9
$CELTYPE
  6
BYLAYER
  9
$CECOLOR
 62
   256
  9
$DIMSCALE
 40
20.0
  9
$DIMASZ
 40
2.0
  9
$DIMEXO
 40
0.0
  9
$DIMDLI
 40
7.0
  9
$DIMRND
 40
0.0
  9
$DIMDLE
 40
0.0
  9
$DIMEXE
 40
1.0
  9
$DIMTP
 40
0.0
  9
$DIMTM
 40
0.0
  9
$DIMTXT
 40
3.5
  9
$DIMCEN
 40
0.0
  9
$DIMTSZ
 40
0.0
  9
$DIMTOL
 70
     0
  9
$DIMLIM
 70
     0
  9
$DIMTIH
 70
     0
  9
$DIMTOH
 70
     0
  9
$DIMSE1
 70
     0
  9
$DIMSE2
 70
     0
  9
$DIMTAD
 70
     1
  9
$DIMZIN
 70
     8
  9
$DIMBLK
  1

  9
$DIMASO
 70
     1
  9
$DIMSHO
 70
     1
  9
$DIMPOST
  1
 
  9
$DIMAPOST
  1

  9
$DIMALT
 70
     0
  9
$DIMALTD
 70
     2
  9
$DIMALTF
 40
25.4
  9
$DIMLFAC
 40
1.0
  9
$DIMTOFL
 70
     1
  9
$DIMTVP
 40
0.0
  9
$DIMTIX
 70
     0
  9
$DIMSOXD
 70
     0
  9
$DIMSAH
 70
     1
  9
$DIMBLK1
  1
OPEN30
  9
$DIMBLK2
  1
OPEN30
  9
$LUNITS
 70
     2
  9
$LUPREC
 70
     4
  9
$SKETCHINC
 40
0.1
  9
$FILLETRAD
 40
5.8
  9
$AUNITS
 70
     0
  9
$AUPREC
 70
     2
  9
$MENU
  1
acad
  9
$ELEVATION
 40
0.0
  9
$THICKNESS
 40
0.0
  9
$LIMCHECK
 70
     0
  9
$CHAMFERA
 40
0.0
  9
$CHAMFERB
 40
0.0
  9
$SKPOLY
 70
     0
  9
$TDCREATE
 40
2448750.487089225
  9
$TDUPDATE
 40
2459428.672076586
  9
$TDINDWG
 40
2.5727966782
  9
$TDUSRTIMER
 40
2.5727966782
  9
$USRTIMER
 70
     1
  9
$ANGBASE
 50
0.0
  9
$ANGDIR
 70
     0
  9
$PDMODE
 70
     0
  9
$PDSIZE
 40
0.0
  9
$PLINEWID
 40
1.0
  9
$COORDS
 70
     2
  9
$SPLFRAME
 70
     0
  9
$SPLINETYPE
 70
     6
  9
$SPLINESEGS
 70
     8
  9
$ATTDIA
 70
     0
  9
$ATTREQ
 70
     1
  9
$SURFTAB1
 70
     6
  9
$SURFTAB2
 70
     6
  9
$SURFTYPE
 70
     6
  9
$SURFU
 70
     6
  9
$SURFV
 70
     6
  9
$UCSNAME
  2

  9
$UCSORG
 10
0.0
 20
0.0
 30
0.0
  9
$UCSXDIR
 10
1.0
 20
0.0
 30
0.0
  9
$UCSYDIR
 10
0.0
 20
1.0
 30
0.0
  9
$USERI1
 70
     0
  9
$USERI2
 70
     0
  9
$USERI3
 70
     0
  9
$USERI4
 70
     0
  9
$USERI5
 70
     0
  9
$USERR1
 40
0.0
  9
$USERR2
 40
0.0
  9
$USERR3
 40
0.0
  9
$USERR4
 40
0.0
  9
$USERR5
 40
0.0
  9
$WORLDVIEW
 70
     1
  0
ENDSEC
  0
SECTION
  2
TABLES
  0
TABLE
  2
LTYPE
 70
    12
  0
LTYPE
  2
CONTINUOUS
 70
     0
  3
Solid line
 72
    65
 73
     0
 40
0.0
  0
LTYPE
  2
HIDDEN
 70
     0
  3
Hidden __ __ __ __ __ __ __ __ __ __ __ __ __ _
 72
    65
 73
     2
 40
9.525
 49
6.35
 49
-3.175
  0
LTYPE
  2
PHANTOM2
 70
     0
  3
Phantom (0.5x) ___ _ _ ___ _ _ ___ _ _ ___ _ _
 72
    65
 73
     6
 40
31.75
 49
15.875
 49
-3.175
 49
3.175
 49
-3.175
 49
3.175
 49
-3.175
  0
LTYPE
  2
CENTER2
 70
     0
  3
Center (.5x) ___ _ ___ _ ___ _ ___ _ ___ _ ___
 72
    65
 73
     4
 40
28.575
 49
19.05
 49
-3.175
 49
3.175
 49
-3.175
  0
LTYPE
  2
HADAN
 70
     0
  3
Hadansen
 72
    65
 73
     4
 40
58.0
 49
50.0
 49
-2.0
 49
-4.0
 49
-2.0
  0
LTYPE
  2
BATTING
 70
     0
  3
Batting SSSSSSSSSSSSSSSSSSSSSSSSSSSSSSSSSSSSSSS
 72
    65
 73
     4
 40
10.16254
 49
0.00254
 49
-2.54
 49
-5.08
 49
-2.54
  0
LTYPE
  2
DASHED2
 70
     0
  3
Dashed (0.5x) _ _ _ _ _ _ _ _ _ _ _ _ _ _ _ _ _
 72
    65
 73
     2
 40
9.525
 49
6.35
 49
-3.175
  0
LTYPE
  2
FENCELINE1
 70
     0
  3
Fenceline circle -0-----0----0-----0----0-----0
 72
    65
 73
     4
 40
36.83
 49
3.81
 49
-2.54
 49
-2.54
 49
27.94
  0
LTYPE
  2
FENCELINE2
 70
     0
  3
Fenceline square -[]-----[]----[]-----[]----[]-
 72
    65
 73
     4
 40
36.83
 49
3.81
 49
-2.54
 49
-2.54
 49
27.94
  0
LTYPE
  2
TRACKS
 70
     0
  3
Tracks -|-|-|-|-|-|-|-|-|-|-|-|-|-|-|-|-|-|-|-|
 72
    65
 73
     2
 40
7.62
 49
3.81
 49
3.81
  0
LTYPE
  2
ZIGZAG
 70
     0
  3
Zig zag /\/\/\/\/\/\/\/\/\/\/\/\/\/\/\/\/\/\/\/
 72
    65
 73
     4
 40
20.32254
 49
0.00254
 49
-5.08
 49
-10.16
 49
-5.08
  0
LTYPE
  2
BORDER2
 70
     0
  3
Border (0.5x) __.__.__.__.__.__.__.__.__.__.__.
 72
    65
 73
     6
 40
22.225
 49
6.35
 49
-3.175
 49
6.35
 49
-3.175
 49
0.0
 49
-3.175
  0
ENDTAB
  0
TABLE
  2
LAYER
 70
    38
  0
LAYER
  2
0
 70
     0
 62
     7
  6
CONTINUOUS
  0
LAYER
  2
1DIM
 70
     0
 62
     8
  6
CONTINUOUS
  0
LAYER
  2
2VIEWPORT
 70
     0
 62
    -1
  6
CONTINUOUS
  0
LAYER
  2
01
 70
     0
 62
     1
  6
CONTINUOUS
  0
LAYER
  2
DEFPOINTS
 70
     0
 62
     7
  6
CONTINUOUS
  0
LAYER
  2
1HIDDEN
 70
     0
 62
     8
  6
HIDDEN
  0
LAYER
  2
1PHANTOM
 70
     0
 62
   254
  6
PHANTOM2
  0
LAYER
  2
03
 70
     0
 62
     3
  6
CONTINUOUS
  0
LAYER
  2
02
 70
     0
 62
     2
  6
CONTINUOUS
  0
LAYER
  2
1TEXT
 70
     0
 62
   201
  6
CONTINUOUS
  0
LAYER
  2
04
 70
     0
 62
     4
  6
CONTINUOUS
  0
LAYER
  2
POINT
 70
     0
 62
     7
  6
CONTINUOUS
  0
LAYER
  2
1HATCH
 70
     0
 62
     8
  6
CONTINUOUS
  0
LAYER
  2
05
 70
     0
 62
     5
  6
CONTINUOUS
  0
LAYER
  2
06
 70
     0
 62
     6
  6
CONTINUOUS
  0
LAYER
  2
07
 70
     0
 62
   143
  6
CONTINUOUS
  0
LAYER
  2
08
 70
     0
 62
    95
  6
CONTINUOUS
  0
LAYER
  2
09
 70
     0
 62
    15
  6
CONTINUOUS
  0
LAYER
  2
10
 70
     0
 62
   213
  6
CONTINUOUS
  0
LAYER
  2
11
 70
     0
 62
     7
  6
CONTINUOUS
  0
LAYER
  2
1CENTER
 70
     0
 62
   221
  6
CONTINUOUS
  0
LAYER
  2
1DIM1
 70
     0
 62
   221
  6
CONTINUOUS
  0
LAYER
  2
1DIM2
 70
     0
 62
   254
  6
CONTINUOUS
  0
LAYER
  2
1DIM3
 70
     0
 62
     8
  6
CONTINUOUS
  0
LAYER
  2
2BATTING
 70
     0
 62
     7
  6
BATTING
  0
LAYER
  2
2FENCELINE1
 70
     0
 62
     7
  6
FENCELINE1
  0
LAYER
  2
2FENCELINE2
 70
     0
 62
     7
  6
FENCELINE2
  0
LAYER
  2
2TRACKS
 70
     0
 62
     7
  6
TRACKS
  0
LAYER
  2
2ZIGZAG
 70
     0
 62
     7
  6
ZIGZAG
  0
LAYER
  2
2HADAN
 70
     0
 62
     7
  6
HADAN
  0
LAYER
  2
1TEXT2
 70
     0
 62
   221
  6
CONTINUOUS
  0
LAYER
  2
99WAKU
 70
     0
 62
   253
  6
CONTINUOUS
  0
LAYER
  2
MIDFINE
 70
     0
 62
     9
  6
CONTINUOUS
  0
LAYER
  2
THICK
 70
     0
 62
   252
  6
CONTINUOUS
  0
LAYER
  2
ZZ
 70
     0
 62
    -8
  6
CONTINUOUS
  0
LAYER
  2
ZZXX
 70
     0
 62
   243
  6
CONTINUOUS
  0
LAYER
  2
MAKE2D$VISIBLE$LINES
 70
     0
 62
     7
  6
CONTINUOUS
  0
LAYER
  2
MAKE2D$VISIBLE$TANGENTS
 70
     0
 62
     7
  6
CONTINUOUS
  0
ENDTAB
  0
TABLE
  2
STYLE
 70
     4
  0
STYLE
  2
STANDARD
 70
     0
 40
0.0
 41
1.0
 50
0.0
 71
     0
 42
4.0
  3
romans.shx
  4
extfont2.shx
  0
STYLE
  2
KAI
 70
     0
 40
0.0
 41
1.0
 50
0.0
 71
     0
 42
4.0
  3
HGSeikaishotaiPRO.ttf
  4

  0
STYLE
  2

 70
     1
 40
0.2
 41
1.0
 50
0.0
 71
     0
 42
4.0
  3
ltypeshp.shx
  4

  0
STYLE
  2
TATE2
 70
     4
 40
0.0
 41
1.0
 50
0.0
 71
     0
 42
4.0
  3
romans.shx
  4
@extfont2.shx
  0
ENDTAB
  0
TABLE
  2
VIEW
 70
     0
  0
ENDTAB
  0
ENDSEC
  0
SECTION
  2
BLOCKS
  0
BLOCK
  8
0
  2
_OPEN30
 70
     0
 10
0.0
 20
0.0
  0
LINE
  8
0
  6
BYBLOCK
 62
     0
 10
-1.0
 20
0.26794919
 11
0.0
 21
0.0
  0
LINE
  8
0
  6
BYBLOCK
 62
     0
 10
0.0
 20
0.0
 11
-1.0
 21
-0.26794919
  0
LINE
  8
0
  6
BYBLOCK
 62
     0
 10
0.0
 20
0.0
 11
-1.0
 21
0.0
  0
ENDBLK
  8
0
  0
BLOCK
  8
0
  2
NOCIRCLE
 70
     2
 10
0.0
 20
0.0
  0
CIRCLE
  8
0
  6
BYBLOCK
 62
     0
 10
0.0
 20
0.0
 40
4.2
  0
ATTDEF
  8
1TEXT
 10
-1.904761904762
 20
-2.0
 40
4.0
  1
0
 72
     4
 11
0.0
 21
0.0
  3
NO.
  2
NO
 70
     0
  0
ENDBLK
  8
0
  0
BLOCK
  8
0
  2
_OPEN
 70
     0
 10
0.0
 20
0.0
  0
LINE
  8
0
  6
BYBLOCK
 62
     0
 10
-1.0
 20
0.166667
 11
0.0
 21
0.0
  0
LINE
  8
0
  6
BYBLOCK
 62
     0
 10
-1.0
 20
-0.166667
 11
0.0
 21
0.0
  0
LINE
  8
0
  6
BYBLOCK
 62
     0
 10
0.0
 20
0.0
 11
-1.0
 21
0.0
  0
ENDBLK
  8
0
  0
BLOCK
  8
0
  2
YA__
 70
     0
 10
0.0
 20
0.0
  0
INSERT
  8
0
  2
YA_
 10
0.0
 20
0.0
 30
0.0
 50
180.0
  0
ENDBLK
  8
0
  0
BLOCK
  8
0
  2
YA_
 70
     0
 10
0.0
 20
0.0
  0
LINE
  8
0
 10
-5.598760219962
 20
0.622116757674
 11
-2.488360049962
 21
0.622116757674
  0
LINE
  8
0
 10
-5.598760219962
 20
-0.622043242326
 11
-2.488359989962
 21
-0.622043242326
  0
LINE
  8
0
 10
-5.598760219962
 20
0.622116757674
 11
-5.598760219962
 21
-0.622043242326
  0
LINE
  8
0
 10
-2.488360079962
 20
1.346879757674
 11
-2.488360049962
 21
0.622116757674
  0
LINE
  8
0
 10
0.155480482306
 20
-1.993947296099
 11
0.155480380551
 21
1.993947304034
  0
LINE
  8
0
 10
-0.000039515118
 20
-1.99999999961
 11
-0.000039719246
 21
1.999999999606
  0
LINE
  8
0
 10
-0.155559515297
 20
-1.993941131829
 11
-0.155559619962
 21
0.000036757674
  0
LINE
  8
0
 10
-0.155559619962
 20
0.000036757674
 11
-0.155559718965
 21
1.99394111594
  0
LINE
  8
0
 10
-2.488359989962
 20
-0.622043242326
 11
-2.488359959962
 21
-1.346806242326
  0
LINE
  8
0
 10
-0.155559619962
 20
0.000036757674
 11
-2.488360199962
 21
-1.346806242326
  0
LINE
  8
0
 10
-0.155559619962
 20
0.000036757674
 11
-2.488360079962
 21
1.346879757674
  0
POINT
  8
POINT
 10
0.0
 20
0.0
 30
0.0
  0
ENDBLK
  8
0
  0
BLOCK
  8
0
  2
金属脚
 70
     0
 10
0.0
 20
0.0
  0
LINE
  8
0
  6
BYBLOCK
 62
     0
 10
0.0
 20
0.0
 11
125.0
 21
0.0
  0
LINE
  8
0
  6
BYBLOCK
 62
     0
 10
7.011342610203
 20
-155.999982357025
 11
23.011342610203
 21
-155.999982357025
  0
LINE
  8
0
  6
BYBLOCK
 62
     0
 10
7.011342610203
 20
-155.999982357025
 11
7.011342610203
 21
-145.999982357025
  0
LINE
  8
0
  6
BYBLOCK
 62
     0
 10
23.011342610203
 20
-155.999982357025
 11
23.011342610218
 21
-145.999982357025
  0
LINE
  8
0
  6
BYBLOCK
 62
     0
 10
4.0
 20
-145.999982357025
 11
22.0
 21
-145.999982357025
  0
LINE
  8
0
  6
BYBLOCK
 62
     0
 10
4.0
 20
-5.999982357025
 11
4.0
 21
-145.999982357025
  0
LINE
  8
0
  6
BYBLOCK
 62
     0
 10
22.0
 20
-5.999982357025
 11
104.0
 21
-5.999982357025
  0
LINE
  8
0
  6
BYBLOCK
 62
     0
 10
22.0
 20
-145.999982357025
 11
26.0
 21
-145.999982357025
  0
ARC
  8
0
  6
BYBLOCK
 62
     0
 10
31.0
 20
-32.999982357025
 40
5.0
 50
90.0
 51
180.0
  0
LINE
  8
0
  6
BYBLOCK
 62
     0
 10
26.0
 20
-145.999982357025
 11
26.0
 21
-32.999982357025
  0
LINE
  8
0
  6
BYBLOCK
 62
     0
 10
31.0
 20
-27.999982357025
 11
104.0
 21
-27.999982357025
  0
LINE
  8
0
  6
BYBLOCK
 62
     0
 10
104.0
 20
-27.999982357025
 11
104.0
 21
-5.999982357025
  0
LINE
  8
0
  6
BYBLOCK
 62
     0
 10
125.0
 20
-5.999982357025
 11
119.999885559082
 21
-5.999982357025
  0
LINE
  8
0
  6
BYBLOCK
 62
     0
 10
125.0
 20
-5.999982357025
 11
125.0
 21
0.0
  0
LINE
  8
0
  6
BYBLOCK
 62
     0
 10
119.999885559082
 20
-5.999982357025
 11
0.0
 21
-5.999982357025
  0
LINE
  8
0
  6
BYBLOCK
 62
     0
 10
0.0
 20
-5.999982357025
 11
0.0
 21
0.0
  0
ENDBLK
  8
0
  0
BLOCK
  8
0
  2
A-A
 70
     0
 10
0.0
 20
0.0
  0
LINE
  8
0
 10
0.0
 20
0.0
 11
53.759996799999
 21
0.0
  0
LINE
  8
0
 10
8.0321632
 20
10.63999856
 11
11.2933376
 21
1.68
  0
LINE
  8
0
 10
3.36
 20
1.68000624
 11
6.6211696
 21
10.63998944
  0
LINE
  8
0
 10
9.8630848
 20
1.68
 11
11.2933392
 21
1.68
  0
LINE
  8
0
 10
8.905750399999
 20
4.31024896
 11
9.8630848
 21
1.67999952
  0
LINE
  8
0
 10
4.7902528
 20
1.68000016
 11
5.7475856
 21
4.31024864
  0
LINE
  8
0
 10
3.36
 20
1.68
 11
4.7902528
 21
1.68
  0
LINE
  8
0
 10
5.7475856
 20
4.31024928
 11
8.905750399999
 21
4.31024928
  0
LINE
  8
0
 10
6.171791999999
 20
5.47574928
 11
8.4815424
 21
5.47574928
  0
LINE
  8
0
 10
6.171791999999
 20
5.4757488
 11
7.3266672
 21
8.64873968
  0
LINE
  8
0
 10
7.326668799999
 20
8.64873888
 11
8.481544
 21
5.4757488
  0
LINE
  8
0
 10
12.678397759999
 20
5.57759664
 11
16.441594239999
 21
5.57759664
  0
LINE
  8
0
 10
12.678397759999
 20
6.65279616
 11
16.441594239999
 21
6.65279616
  0
ARC
  8
0
 10
12.678397759999
 20
5.93599664
 40
0.3583999840000001
 50
179.99994
 51
270.0
  0
ARC
  8
0
 10
12.678397759999
 20
6.29439616
 40
0.3583999840000001
 50
90.0
 51
179.99994
  0
LINE
  8
0
 10
12.319997759999
 20
6.29439616
 11
12.319997759999
 21
5.93599664
  0
ARC
  8
0
 10
16.441594239999
 20
6.29439616
 40
0.3583999840000001
 50
0.0
 51
90.0
  0
ARC
  8
0
 10
16.441594239999
 20
5.93599664
 40
0.3583999840000001
 50
270.0
 51
0.0
  0
LINE
  8
0
 10
16.79999424
 20
6.29439616
 11
16.79999424
 21
5.93599664
  0
LINE
  8
0
 10
6.621172799999
 20
10.63999856
 11
8.0321632
 21
10.63999856
  0
LINE
  8
0
 10
25.952162927999
 20
10.63999936
 11
29.21333792
 21
1.68000064
  0
LINE
  8
0
 10
21.279999519999
 20
1.68000528
 11
24.541168639999
 21
10.639988
  0
LINE
  8
0
 10
23.667586079999
 20
4.31024928
 11
26.8257509616
 21
4.31024928
  0
LINE
  8
0
 10
22.7102536
 20
1.67999904
 11
23.667586559999
 21
4.31024784
  0
LINE
  8
0
 10
21.28000064
 20
1.68
 11
22.71025168
 21
1.68
  0
LINE
  8
0
 10
24.09179248
 20
5.47574928
 11
26.401542576
 21
5.47574928
  0
LINE
  8
0
 10
24.091794239999
 20
5.475748
 11
25.24666896
 21
8.64873888
  0
LINE
  8
0
 10
25.2466664
 20
8.64873968
 11
26.401541424
 21
5.475748
  0
LINE
  8
0
 10
26.8257489648
 20
4.31024816
 11
27.783081824
 21
1.67999952
  0
LINE
  8
0
 10
27.783083439999
 20
1.68
 11
29.21333888
 21
1.68
  0
POINT
  8
0
 10
26.8799984
 20
0.0
 30
0.0
  0
POINT
  8
0
 10
26.8799984
 20
0.0
 30
0.0
  0
LINE
  8
0
 10
24.541171999999
 20
10.63999856
 11
25.952163024
 21
10.63999856
  0
TEXT
  8
0
 10
35.978853279999
 20
1.99199984
 40
8.0
  1
断面
 41
0.8643459
  0
ENDBLK
  8
0
  0
BLOCK
  8
0
  2
AA
 70
     0
 10
0.0
 20
0.0
  0
LINE
  8
0
 10
0.000001680067
 20
0.00000565232
 11
2.9117599
 21
7.9999905
  0
LINE
  8
0
 10
3.5416694
 20
6.2220893
 11
4.5728078
 21
3.3890617
  0
LINE
  8
0
 10
2.5105312
 20
3.3890617
 11
3.5416694
 21
6.2220888
  0
LINE
  8
0
 10
4.171576
 20
7.999999
 11
7.0833392
 21
0.000000048888
  0
LINE
  8
0
 10
2.1317739
 20
2.3484368
 11
4.9515643
 21
2.3484368
  0
LINE
  8
0
 10
2.5105309
 20
3.3890619
 11
4.5728073
 21
3.3890619
  0
LINE
  8
0
 10
0.000001907349
 20
0.0
 11
1.2770123
 21
0.0
  0
POINT
  8
0
 10
0.0
 20
0.0
 30
0.0
  0
LINE
  8
0
 10
1.2770127
 20
-0.000000009364
 11
2.1317742
 21
2.3484364
  0
LINE
  8
0
 10
5.8063259
 20
0.0
 11
7.0833392
 21
0.0
  0
LINE
  8
0
 10
4.9515648
 20
2.3484368
 11
5.8063259
 21
0.000000268506
  0
LINE
  8
0
 10
2.9117632
 20
7.999999
 11
4.171576
 21
7.999999
  0
ENDBLK
  8
0
  0
BLOCK
  8
0
  2
訂正1
 70
     0
 10
0.0
 20
0.0
  0
LINE
  8
1HATCH
 10
0.000000135843
 20
2.025
 11
2.33826804
 21
-2.0250009
  0
LINE
  8
1HATCH
 10
-2.33826867
 20
-2.025
 11
2.33826849
 21
-2.025
  0
TEXT
  8
1TEXT
 10
-0.434499620191
 20
-1.510450886077
 40
1.8
  1
1
 41
0.66666667
 72
     1
 11
0.051214667951
 21
-1.510450886077
  0
LINE
  8
1HATCH
 10
0.000000476316
 20
2.02500018
 11
-2.33826849
 21
-2.02499937
  0
ENDBLK
  8
0
  0
BLOCK
  8
0
  2
*D448
 70
     1
 10
0.0
 20
0.0
  0
LINE
  8
1DIM
 10
39723.2741440511
 20
-6074.826543530114
 11
39653.2741440511
 21
-6074.826543530114
  0
LINE
  8
1DIM
 10
39723.2741440511
 20
-6664.82651730407
 11
39653.2741440511
 21
-6664.82651730407
  0
LINE
  8
1DIM
 10
39673.2741440511
 20
-6114.826543530114
 11
39673.2741440511
 21
-6624.82651730407
  0
INSERT
  8
1DIM
  2
_OPEN30
 10
39673.2741440511
 20
-6074.826543530114
 30
0.0
 41
40.0
 42
40.0
 43
40.0
 50
90.0
  0
INSERT
  8
1DIM
  2
_OPEN30
 10
39673.2741440511
 20
-6664.82651730407
 30
0.0
 41
40.0
 42
40.0
 43
40.0
 50
270.0
  0
TEXT
  8
1DIM
  6
CONTINUOUS
 62
   201
 10
39659.2741440511
 20
-6469.826530417093
 40
70.0
  1
590
 50
90.0
  0
POINT
  8
DEFPOINTS
 62
     0
 10
39823.2741440511
 20
-6074.826543530114
 30
0.0
  0
POINT
  8
DEFPOINTS
 62
     0
 10
39823.2741440511
 20
-6664.82651730407
 30
0.0
  0
POINT
  8
DEFPOINTS
 62
     0
 10
39673.2741440511
 20
-6664.82651730407
 30
0.0
  0
ENDBLK
  8
0
  0
BLOCK
  8
0
  2
*D449
 70
     1
 10
0.0
 20
0.0
  0
LINE
  8
1DIM
 10
39823.2741440511
 20
-6764.82651730407
 11
39823.2741440511
 21
-6834.82651730407
  0
LINE
  8
1DIM
 10
40573.40160987386
 20
-6764.82651730407
 11
40573.40160987386
 21
-6834.82651730407
  0
LINE
  8
1DIM
 10
39863.2741440511
 20
-6814.82651730407
 11
40533.40160987386
 21
-6814.82651730407
  0
INSERT
  8
1DIM
  2
_OPEN30
 10
39823.2741440511
 20
-6814.82651730407
 30
0.0
 41
40.0
 42
40.0
 43
40.0
 50
180.0
  0
INSERT
  8
1DIM
  2
_OPEN30
 10
40573.40160987386
 20
-6814.82651730407
 30
0.0
 41
40.0
 42
40.0
 43
40.0
  0
TEXT
  8
1DIM
  6
CONTINUOUS
 62
   201
 10
40098.33787696248
 20
-6800.82651730407
 40
70.0
  1
750
  0
POINT
  8
DEFPOINTS
 62
     0
 10
39823.2741440511
 20
-6664.82651730407
 30
0.0
  0
POINT
  8
DEFPOINTS
 62
     0
 10
40573.40160987386
 20
-6664.82651730407
 30
0.0
  0
POINT
  8
DEFPOINTS
 62
     0
 10
40573.40160987386
 20
-6814.82651730407
 30
0.0
  0
ENDBLK
  8
0
  0
BLOCK
  8
0
  2
*D450
 70
     1
 10
0.0
 20
0.0
  0
LINE
  8
1DIM
 10
40673.40160987386
 20
-5871.841222201911
 11
40743.40160987386
 21
-5871.841222201911
  0
LINE
  8
1DIM
 10
40673.40160987386
 20
-6664.82651730407
 11
40743.40160987386
 21
-6664.82651730407
  0
LINE
  8
1DIM
 10
40723.40160987386
 20
-5911.841222201911
 11
40723.40160987386
 21
-6624.82651730407
  0
INSERT
  8
1DIM
  2
_OPEN30
 10
40723.40160987386
 20
-5871.841222201911
 30
0.0
 41
40.0
 42
40.0
 43
40.0
 50
90.0
  0
INSERT
  8
1DIM
  2
_OPEN30
 10
40723.40160987386
 20
-6664.82651730407
 30
0.0
 41
40.0
 42
40.0
 43
40.0
 50
270.0
  0
TEXT
  8
1DIM
  6
CONTINUOUS
 62
   201
 10
40709.40160987386
 20
-6368.333869752991
 40
70.0
  1
790
 50
90.0
  0
POINT
  8
DEFPOINTS
 62
     0
 10
40573.40160987386
 20
-5871.841222201911
 30
0.0
  0
POINT
  8
DEFPOINTS
 62
     0
 10
40573.40160987386
 20
-6664.82651730407
 30
0.0
  0
POINT
  8
DEFPOINTS
 62
     0
 10
40723.40160987386
 20
-6664.82651730407
 30
0.0
  0
ENDBLK
  8
0
  0
BLOCK
  8
0
  2
*D451
 70
     1
 10
0.0
 20
0.0
  0
LINE
  8
1DIM
 10
39823.2741440511
 20
-5771.841222201911
 11
39823.2741440511
 21
-5701.841222201911
  0
LINE
  8
1DIM
 10
40322.80937811869
 20
-5771.841222201911
 11
40322.80937811869
 21
-5701.841222201911
  0
LINE
  8
1DIM
 10
39863.2741440511
 20
-5721.841222201911
 11
40282.80937811869
 21
-5721.841222201911
  0
INSERT
  8
1DIM
  2
_OPEN30
 10
39823.2741440511
 20
-5721.841222201911
 30
0.0
 41
40.0
 42
40.0
 43
40.0
 50
180.0
  0
INSERT
  8
1DIM
  2
_OPEN30
 10
40322.80937811869
 20
-5721.841222201911
 30
0.0
 41
40.0
 42
40.0
 43
40.0
  0
TEXT
  8
1DIM
  6
CONTINUOUS
 62
   201
 10
39973.0417610849
 20
-5707.841222201911
 40
70.0
  1
500
  0
POINT
  8
DEFPOINTS
 62
     0
 10
39823.2741440511
 20
-5871.841222201911
 30
0.0
  0
POINT
  8
DEFPOINTS
 62
     0
 10
40322.80937811869
 20
-5871.841222201911
 30
0.0
  0
POINT
  8
DEFPOINTS
 62
     0
 10
40322.80937811869
 20
-5721.841222201911
 30
0.0
  0
ENDBLK
  8
0
  0
BLOCK
  8
0
  2
*D482
 70
     1
 10
0.0
 20
0.0
  0
LINE
  8
1DIM
 10
37502.55696748247
 20
-6764.82651730407
 11
37502.55696748247
 21
-6834.82651730407
  0
LINE
  8
1DIM
 10
39323.26190446367
 20
-6764.82651730407
 11
39323.26190446367
 21
-6834.82651730407
  0
LINE
  8
1DIM
 10
37542.55696748247
 20
-6814.82651730407
 11
39283.26190446367
 21
-6814.82651730407
  0
INSERT
  8
1DIM
  2
_OPEN30
 10
37502.55696748247
 20
-6814.82651730407
 30
0.0
 41
40.0
 42
40.0
 43
40.0
 50
180.0
  0
INSERT
  8
1DIM
  2
_OPEN30
 10
39323.26190446367
 20
-6814.82651730407
 30
0.0
 41
40.0
 42
40.0
 43
40.0
  0
TEXT
  8
1DIM
  6
CONTINUOUS
 62
   201
 10
38274.57610263973
 20
-6800.82651730407
 40
70.0
  1
1820
  0
POINT
  8
DEFPOINTS
 62
     0
 10
37502.55696748247
 20
-6664.82651730407
 30
0.0
  0
POINT
  8
DEFPOINTS
 62
     0
 10
39323.26190446367
 20
-6664.82651730407
 30
0.0
  0
POINT
  8
DEFPOINTS
 62
     0
 10
39323.26190446367
 20
-6814.82651730407
 30
0.0
  0
ENDBLK
  8
0
  0
BLOCK
  8
0
  2
*D483
 70
     1
 10
0.0
 20
0.0
  0
LINE
  8
1DIM
 10
37402.55696748247
 20
-6264.826481790878
 11
37332.55696748247
 21
-6264.826481790878
  0
LINE
  8
1DIM
 10
37402.55696748247
 20
-6664.82651730407
 11
37332.55696748247
 21
-6664.82651730407
  0
LINE
  8
1DIM
 10
37352.55696748247
 20
-6304.826481790878
 11
37352.55696748247
 21
-6624.82651730407
  0
INSERT
  8
1DIM
  2
_OPEN30
 10
37352.55696748247
 20
-6264.826481790878
 30
0.0
 41
40.0
 42
40.0
 43
40.0
 50
90.0
  0
INSERT
  8
1DIM
  2
_OPEN30
 10
37352.55696748247
 20
-6664.82651730407
 30
0.0
 41
40.0
 42
40.0
 43
40.0
 50
270.0
  0
TEXT
  8
1DIM
  6
CONTINUOUS
 62
   201
 10
37338.55696748247
 20
-6564.826499547475
 40
70.0
  1
400
 50
90.0
  0
POINT
  8
DEFPOINTS
 62
     0
 10
37502.55696748247
 20
-6264.826481790878
 30
0.0
  0
POINT
  8
DEFPOINTS
 62
     0
 10
37502.55696748247
 20
-6664.82651730407
 30
0.0
  0
POINT
  8
DEFPOINTS
 62
     0
 10
37352.55696748247
 20
-6664.82651730407
 30
0.0
  0
ENDBLK
  8
0
  0
BLOCK
  8
0
  2
*D484
 70
     1
 10
0.0
 20
0.0
  0
LINE
  8
1DIM
 10
37632.90948015563
 20
-5771.841222201911
 11
37632.90948015563
 21
-5701.841222201911
  0
LINE
  8
1DIM
 10
39192.90948017631
 20
-5771.841222201911
 11
39192.90948017631
 21
-5701.841222201911
  0
LINE
  8
1DIM
 10
37672.90948015563
 20
-5721.841222201911
 11
39152.90948017631
 21
-5721.841222201911
  0
INSERT
  8
1DIM
  2
_OPEN30
 10
37632.90948015563
 20
-5721.841222201911
 30
0.0
 41
40.0
 42
40.0
 43
40.0
 50
180.0
  0
INSERT
  8
1DIM
  2
_OPEN30
 10
39192.90948017631
 20
-5721.841222201911
 30
0.0
 41
40.0
 42
40.0
 43
40.0
  0
TEXT
  8
1DIM
  6
CONTINUOUS
 62
   201
 10
38274.57614683263
 20
-5707.841222201911
 40
70.0
  1
1560
  0
POINT
  8
DEFPOINTS
 62
     0
 10
37632.90948015563
 20
-5871.841222201911
 30
0.0
  0
POINT
  8
DEFPOINTS
 62
     0
 10
39192.90948017631
 20
-5871.841222201911
 30
0.0
  0
POINT
  8
DEFPOINTS
 62
     0
 10
39192.90948017631
 20
-5721.841222201911
 30
0.0
  0
ENDBLK
  8
0
  0
ENDSEC
  0
SECTION
  2
ENTITIES
  0
POLYLINE
  8
0
 66
     1
  0
VERTEX
  8
0
 10
40487.4186315299
 20
-6074.826543530114
  0
VERTEX
  8
0
 10
40532.93863914022
 20
-5956.242864330895
 42
-0.312728412941
  0
VERTEX
  8
0
 10
40542.2743954421
 20
-5949.826543530114
  0
VERTEX
  8
0
 10
40563.40161941061
 20
-5949.826543530114
 42
-0.421776386743
  0
VERTEX
  8
0
 10
40573.40160987386
 20
-5959.826533993371
  0
VERTEX
  8
0
 10
40573.40160987386
 20
-6084.826533993371
  0
SEQEND
  8
0
  0
POLYLINE
  8
0
 66
     1
  0
VERTEX
  8
0
 10
40550.90163133154
 20
-6544.826519986279
  0
VERTEX
  8
0
 10
40550.90163133154
 20
-6664.82651730407
  0
VERTEX
  8
0
 10
40515.90160510549
 20
-6664.82651730407
  0
VERTEX
  8
0
 10
40495.90162417898
 20
-6544.826519986279
  0
SEQEND
  8
0
  0
POLYLINE
  8
0
 66
     1
  0
VERTEX
  8
0
 10
39915.90161106596
 20
-6544.826519986279
  0
VERTEX
  8
0
 10
39895.9016077877
 20
-6664.82651730407
  0
VERTEX
  8
0
 10
39860.90161136398
 20
-6664.82651730407
  0
VERTEX
  8
0
 10
39860.90161136398
 20
-6544.826519986279
  0
SEQEND
  8
0
  0
POLYLINE
  8
0
 66
     1
 70
     1
  0
VERTEX
  8
0
 10
40573.40160987386
 20
-6084.826533993371
  0
VERTEX
  8
0
 10
40573.40160987386
 20
-6544.826519986279
  0
VERTEX
  8
0
 10
39837.44760115279
 20
-6544.826519986279
  0
VERTEX
  8
0
 10
39837.44760115279
 20
-6089.826339742541
 42
-0.425405565861
  0
VERTEX
  8
0
 10
39852.44760081751
 20
-6074.826543530114
  0
VERTEX
  8
0
 10
40562.44761102481
 20
-6074.826543530114
 42
-0.369841049831
  0
SEQEND
  8
0
  0
DIMENSION
  8
1DIM
  2
*D448
 10
39673.2741440511
 20
-6664.82651730407
 11
39624.2741440511
 21
-6369.826530417092
 70
    32
 13
39823.2741440511
 23
-6074.826543530114
 33
0.0
 14
39823.2741440511
 24
-6664.82651730407
 34
0.0
 50
90.0
  0
DIMENSION
  8
1DIM
  2
*D449
 10
40573.40160987386
 20
-6814.82651730407
 11
40198.33787696248
 21
-6765.82651730407
 70
    32
 13
39823.2741440511
 23
-6664.82651730407
 33
0.0
 14
40573.40160987386
 24
-6664.82651730407
 34
0.0
  0
DIMENSION
  8
1DIM
  2
*D450
 10
40723.40160987386
 20
-6664.82651730407
 11
40674.40160987386
 21
-6268.333869752991
 70
    32
  1
790
 13
40573.40160987386
 23
-5871.841222201911
 33
0.0
 14
40573.40160987386
 24
-6664.82651730407
 34
0.0
 50
90.0
  0
LINE
  8
1HIDDEN
 10
40399.40161136397
 20
-6304.118630102427
 11
40487.41859691731
 21
-6074.826543530112
  0
POLYLINE
  8
0
 66
     1
  0
VERTEX
  8
0
 10
39838.40160953859
 20
-6286.81771955736
 42
0.090047911554
  0
VERTEX
  8
0
 10
39827.87478164749
 20
-6313.810945945431
 42
0.10272389388
  0
VERTEX
  8
0
 10
39830.5978957543
 20
-6428.584568251775
 42
0.202008015793
  0
VERTEX
  8
0
 10
39837.44760115279
 20
-6438.002309022521
  0
SEQEND
  8
0
  0
POLYLINE
  8
1HIDDEN
 66
     1
  0
VERTEX
  8
1HIDDEN
 10
40399.40161136398
 20
-6304.118630102427
 42
0.021426023471
  0
VERTEX
  8
1HIDDEN
 10
40137.31267350211
 20
-6269.375514561693
 42
0.036028515946
  0
VERTEX
  8
1HIDDEN
 10
39873.71793943749
 20
-6271.426271763205
 42
0.046505347099
  0
VERTEX
  8
1HIDDEN
 10
39854.92831514821
 20
-6274.96536165102
 42
0.148815603418
  0
VERTEX
  8
1HIDDEN
 10
39838.40160953859
 20
-6286.81771955736
  0
SEQEND
  8
1HIDDEN
  0
DIMENSION
  8
1DIM
  2
*D451
 10
40322.80937811869
 20
-5721.841222201911
 11
40073.0417610849
 21
-5672.841222201911
 70
    32
 13
39823.2741440511
 23
-5871.841222201911
 33
0.0
 14
40322.80937811869
 24
-5871.841222201911
 34
0.0
  0
POLYLINE
  8
0
 10
0.0
 20
0.0
 30
0.0
 66
     1
 70
     8
  0
VERTEX
  8
0
 10
37632.90948021354
 20
-6244.388639603913
 30
0.0
 70
    32
  0
VERTEX
  8
0
 10
37632.90948021193
 20
-6244.388639700802
 30
0.0
 70
    32
  0
VERTEX
  8
0
 10
37632.90948021031
 20
-6244.388639797693
 30
0.0
 70
    32
  0
VERTEX
  8
0
 10
37632.90948020872
 20
-6244.388639894582
 30
0.0
 70
    32
  0
VERTEX
  8
0
 10
37632.9094802071
 20
-6244.388639991473
 30
0.0
 70
    32
  0
VERTEX
  8
0
 10
37632.90948020549
 20
-6244.388640088361
 30
0.0
 70
    32
  0
VERTEX
  8
0
 10
37632.90948020387
 20
-6244.388640185251
 30
0.0
 70
    32
  0
VERTEX
  8
0
 10
37632.90948020228
 20
-6244.388640282141
 30
0.0
 70
    32
  0
VERTEX
  8
0
 10
37632.90948020067
 20
-6244.388640379029
 30
0.0
 70
    32
  0
VERTEX
  8
0
 10
37632.90948019905
 20
-6244.38864047592
 30
0.0
 70
    32
  0
VERTEX
  8
0
 10
37632.90948019744
 20
-6244.388640572809
 30
0.0
 70
    32
  0
VERTEX
  8
0
 10
37632.90948019584
 20
-6244.388640669699
 30
0.0
 70
    32
  0
VERTEX
  8
0
 10
37632.90948019423
 20
-6244.388640766589
 30
0.0
 70
    32
  0
VERTEX
  8
0
 10
37632.90948019261
 20
-6244.388640863477
 30
0.0
 70
    32
  0
VERTEX
  8
0
 10
37632.909480191
 20
-6244.388640960367
 30
0.0
 70
    32
  0
VERTEX
  8
0
 10
37632.9094801894
 20
-6244.388641057257
 30
0.0
 70
    32
  0
VERTEX
  8
0
 10
37632.90948018779
 20
-6244.388641154146
 30
0.0
 70
    32
  0
VERTEX
  8
0
 10
37632.90948018617
 20
-6244.388641251036
 30
0.0
 70
    32
  0
VERTEX
  8
0
 10
37632.90948018456
 20
-6244.388641347926
 30
0.0
 70
    32
  0
VERTEX
  8
0
 10
37632.90948018296
 20
-6244.388641444814
 30
0.0
 70
    32
  0
VERTEX
  8
0
 10
37632.90948018135
 20
-6244.388641541705
 30
0.0
 70
    32
  0
VERTEX
  8
0
 10
37632.90948017973
 20
-6244.388641638594
 30
0.0
 70
    32
  0
VERTEX
  8
0
 10
37632.90948017812
 20
-6244.388641735482
 30
0.0
 70
    32
  0
VERTEX
  8
0
 10
37632.90948017652
 20
-6244.388641832374
 30
0.0
 70
    32
  0
VERTEX
  8
0
 10
37632.90948017492
 20
-6244.388641929262
 30
0.0
 70
    32
  0
SEQEND
  8
0
  0
POLYLINE
  8
0
 66
     1
 70
     1
  0
VERTEX
  8
0
 10
37632.90948017709
 20
-6198.368655828032
 42
0.07026305415
  0
VERTEX
  8
0
 10
37629.65186418572
 20
-6170.144533049054
 42
0.101618697399
  0
VERTEX
  8
0
 10
37594.03895579341
 20
-6097.990633328257
 42
0.236601655473
  0
VERTEX
  8
0
 10
37546.67739971712
 20
-6074.826543530114
  0
VERTEX
  8
0
 10
37522.55706890656
 20
-6074.826543530114
 42
0.523240917751
  0
VERTEX
  8
0
 10
37503.79275612521
 20
-6101.747636896952
 42
-0.088362807038
  0
VERTEX
  8
0
 10
37532.90944202973
 20
-6264.826511343605
  0
VERTEX
  8
0
 10
37532.90944202973
 20
-6539.82651730407
 42
0.398337629729
  0
VERTEX
  8
0
 10
37537.90943726137
 20
-6544.826519986281
  0
VERTEX
  8
0
 10
37627.90947162249
 20
-6544.826519986263
 42
0.428549589901
  0
VERTEX
  8
0
 10
37632.90948017671
 20
-6539.82651730407
  0
VERTEX
  8
0
 10
37632.90948017709
 20
-6288.793305355087
  0
SEQEND
  8
0
  0
POLYLINE
  8
0
 66
     1
  0
VERTEX
  8
0
 10
37555.40948017671
 20
-6544.82651730407
  0
VERTEX
  8
0
 10
37555.40948017671
 20
-6664.82651730407
  0
VERTEX
  8
0
 10
37590.40948017671
 20
-6664.82651730407
  0
VERTEX
  8
0
 10
37590.40948017671
 20
-6664.82651730407
  0
VERTEX
  8
0
 10
37610.40948017671
 20
-6544.82651730407
  0
SEQEND
  8
0
  0
POLYLINE
  8
0
 66
     1
  0
VERTEX
  8
0
 10
37632.6781452159
 20
-6188.470186008296
  0
VERTEX
  8
0
 10
37632.6071028489
 20
-6186.040816739566
  0
VERTEX
  8
0
 10
37632.53043061332
 20
-6183.6116334137
  0
VERTEX
  8
0
 10
37632.44820074184
 20
-6181.182633645007
  0
VERTEX
  8
0
 10
37632.36048546709
 20
-6178.753815047788
  0
VERTEX
  8
0
 10
37632.26735702173
 20
-6176.325175236351
  0
VERTEX
  8
0
 10
37632.16888763842
 20
-6173.896711825001
  0
VERTEX
  8
0
 10
37632.06514954981
 20
-6171.468422428045
  0
VERTEX
  8
0
 10
37631.95621498855
 20
-6169.040304659785
  0
VERTEX
  8
0
 10
37631.8421561873
 20
-6166.61235613453
  0
VERTEX
  8
0
 10
37631.72304537871
 20
-6164.184574466583
  0
VERTEX
  8
0
 10
37631.59895479544
 20
-6161.756957270252
  0
VERTEX
  8
0
 10
37631.46995667013
 20
-6159.32950215984
  0
VERTEX
  8
0
 10
37631.33612323545
 20
-6156.902206749653
  0
VERTEX
  8
0
 10
37631.19752672405
 20
-6154.475068653997
  0
VERTEX
  8
0
 10
37631.05423936858
 20
-6152.048085487179
  0
VERTEX
  8
0
 10
37630.90633340169
 20
-6149.621254863502
  0
VERTEX
  8
0
 10
37630.75388105605
 20
-6147.194574397272
  0
VERTEX
  8
0
 10
37630.5969545643
 20
-6144.768041702795
  0
VERTEX
  8
0
 10
37630.4356261591
 20
-6142.341654394375
  0
VERTEX
  8
0
 10
37630.2699680731
 20
-6139.915410086321
  0
VERTEX
  8
0
 10
37630.10005253896
 20
-6137.489306392933
  0
VERTEX
  8
0
 10
37629.92595178933
 20
-6135.063340928523
  0
VERTEX
  8
0
 10
37629.74773805686
 20
-6132.63751130739
  0
VERTEX
  8
0
 10
37629.56548357421
 20
-6130.211815143845
  0
VERTEX
  8
0
 10
37629.37926057403
 20
-6127.78625005219
  0
VERTEX
  8
0
 10
37629.18914128898
 20
-6125.360813646732
  0
VERTEX
  8
0
 10
37628.99519795171
 20
-6122.935503541775
  0
VERTEX
  8
0
 10
37628.79750279488
 20
-6120.510317351626
  0
VERTEX
  8
0
 10
37628.59612805114
 20
-6118.08525269059
  0
VERTEX
  8
0
 10
37628.39114595313
 20
-6115.660307172972
  0
VERTEX
  8
0
 10
37628.18262873353
 20
-6113.235478413079
  0
VERTEX
  8
0
 10
37627.97064862498
 20
-6110.810764025215
  0
VERTEX
  8
0
 10
37627.75527786012
 20
-6108.386161623685
  0
VERTEX
  8
0
 10
37627.53658867163
 20
-6105.961668822795
  0
VERTEX
  8
0
 10
37627.31465329215
 20
-6103.537283236852
  0
VERTEX
  8
0
 10
37627.08954395435
 20
-6101.113002480159
  0
VERTEX
  8
0
 10
37626.86133289085
 20
-6098.688824167024
  0
VERTEX
  8
0
 10
37626.63009233434
 20
-6096.26474591175
  0
VERTEX
  8
0
 10
37626.39589451746
 20
-6093.840765328644
  0
VERTEX
  8
0
 10
37626.15881167285
 20
-6091.41688003201
  0
VERTEX
  8
0
 10
37625.91891603319
 20
-6088.993087636157
  0
VERTEX
  8
0
 10
37625.67627983112
 20
-6086.569385755386
  0
VERTEX
  8
0
 10
37625.43097529929
 20
-6084.145772004005
  0
VERTEX
  8
0
 10
37625.18307467036
 20
-6081.72224399632
  0
VERTEX
  8
0
 10
37624.932650177
 20
-6079.298799346634
  0
VERTEX
  8
0
 10
37624.67977405183
 20
-6076.875435669255
  0
VERTEX
  8
0
 10
37624.42451852752
 20
-6074.452150578486
  0
VERTEX
  8
0
 10
37624.16695583674
 20
-6072.028941688635
  0
VERTEX
  8
0
 10
37623.90715821212
 20
-6069.605806614005
  0
VERTEX
  8
0
 10
37623.64519788633
 20
-6067.182742968905
  0
VERTEX
  8
0
 10
37623.381147092
 20
-6064.759748367636
  0
VERTEX
  8
0
 10
37623.11507806182
 20
-6062.336820424507
  0
VERTEX
  8
0
 10
37622.84706302843
 20
-6059.913956753821
  0
VERTEX
  8
0
 10
37622.57717422447
 20
-6057.491154969886
  0
VERTEX
  8
0
 10
37622.30548388261
 20
-6055.068412687005
  0
VERTEX
  8
0
 10
37622.03206423549
 20
-6052.645727519485
  0
VERTEX
  8
0
 10
37621.75698751578
 20
-6050.223097081631
  0
VERTEX
  8
0
 10
37621.48032595612
 20
-6047.800518987749
  0
VERTEX
  8
0
 10
37621.20215178918
 20
-6045.377990852144
  0
VERTEX
  8
0
 10
37620.92253724759
 20
-6042.955510289121
  0
VERTEX
  8
0
 10
37620.64155456403
 20
-6040.533074912986
  0
VERTEX
  8
0
 10
37620.35927597114
 20
-6038.110682338044
  0
VERTEX
  8
0
 10
37620.07577370157
 20
-6035.688330178602
  0
VERTEX
  8
0
 10
37619.79111998799
 20
-6033.266016048962
  0
VERTEX
  8
0
 10
37619.50538706305
 20
-6030.843737563435
  0
VERTEX
  8
0
 10
37619.21864715938
 20
-6028.421492336321
  0
VERTEX
  8
0
 10
37618.93097250967
 20
-6025.999277981929
  0
VERTEX
  8
0
 10
37618.64243534656
 20
-6023.577092114561
  0
VERTEX
  8
0
 10
37618.35310790268
 20
-6021.154932348527
  0
VERTEX
  8
0
 10
37618.06306241071
 20
-6018.732796298129
  0
VERTEX
  8
0
 10
37617.77237110332
 20
-6016.310681577675
  0
VERTEX
  8
0
 10
37617.48110621312
 20
-6013.888585801466
  0
VERTEX
  8
0
 10
37617.1893399728
 20
-6011.466506583813
  0
VERTEX
  8
0
 10
37616.897144615
 20
-6009.04444153902
  0
VERTEX
  8
0
 10
37616.60459237237
 20
-6006.622388281389
  0
VERTEX
  8
0
 10
37616.31175547757
 20
-6004.20034442523
  0
VERTEX
  8
0
 10
37616.01870616325
 20
-6001.778307584845
  0
VERTEX
  8
0
 10
37615.72551666207
 20
-5999.356275374542
  0
VERTEX
  8
0
 10
37614.01511885951
 20
-5986.98570618773
  0
VERTEX
  8
0
 10
37605.26180978887
 20
-5925.521590437403
  0
VERTEX
  8
0
 10
37604.89511023977
 20
-5923.11007707866
  0
VERTEX
  8
0
 10
37604.53272262408
 20
-5920.698244334224
  0
VERTEX
  8
0
 10
37604.17726271573
 20
-5918.285898453239
  0
VERTEX
  8
0
 10
37603.83134628864
 20
-5915.872845684858
  0
VERTEX
  8
0
 10
37603.49758911671
 20
-5913.458892278229
  0
VERTEX
  8
0
 10
37603.17860697386
 20
-5911.0438444825
  0
VERTEX
  8
0
 10
37602.877015634
 20
-5908.627508546822
  0
VERTEX
  8
0
 10
37602.59543087102
 20
-5906.209690720342
  0
VERTEX
  8
0
 10
37602.33646845886
 20
-5903.79019725221
  0
VERTEX
  8
0
 10
37602.10274417142
 20
-5901.368834391576
  0
VERTEX
  8
0
 10
37601.89687378261
 20
-5898.945408387589
  0
VERTEX
  8
0
 10
37601.72147306635
 20
-5896.519725489396
  0
VERTEX
  8
0
 10
37601.57915779654
 20
-5894.091591946148
  0
VERTEX
  8
0
 10
37601.47149666723
 20
-5891.660891564392
  0
VERTEX
  8
0
 10
37601.39199742755
 20
-5889.228105226332
  0
VERTEX
  8
0
 10
37601.33042477089
 20
-5886.793991062997
  0
VERTEX
  8
0
 10
37601.53213807487
 20
-5884.365902061631
  0
VERTEX
  8
0
 10
37602.5228848629
 20
-5881.99551669779
  0
VERTEX
  8
0
 10
37603.63322216311
 20
-5879.77746124175
  0
VERTEX
  8
0
 10
37604.95866363796
 20
-5877.833397413434
  0
VERTEX
  8
0
 10
37606.59089927063
 20
-5876.280116473536
  0
VERTEX
  8
0
 10
37608.54519321912
 20
-5875.137061333859
  0
VERTEX
  8
0
 10
37610.7662832123
 20
-5874.333840986661
  0
VERTEX
  8
0
 10
37613.19626556636
 20
-5873.796699891863
  0
VERTEX
  8
0
 10
37615.7772365975
 20
-5873.451882509381
  0
VERTEX
  8
0
 10
37618.45129262192
 20
-5873.225633299136
  0
VERTEX
  8
0
 10
37622.55320265867
 20
-5872.979266825138
  0
VERTEX
  8
0
 10
37628.69860619135
 20
-5872.665120491144
  0
VERTEX
  8
0
 10
37634.68262430455
 20
-5872.39434934169
  0
VERTEX
  8
0
 10
37640.50832162299
 20
-5872.165248307897
  0
VERTEX
  8
0
 10
37646.17876277138
 20
-5871.976112320885
  0
VERTEX
  8
0
 10
37651.69701237442
 20
-5871.825236311777
  0
VERTEX
  8
0
 10
37657.06613505686
 20
-5871.710915211691
  0
VERTEX
  8
0
 10
37662.28919544339
 20
-5871.63144395175
  0
VERTEX
  8
0
 10
37667.36925815873
 20
-5871.585117463076
  0
VERTEX
  8
0
 10
37672.3093878276
 20
-5871.570230676787
  0
VERTEX
  8
0
 10
37677.11264907471
 20
-5871.585078524006
  0
VERTEX
  8
0
 10
37681.78210652478
 20
-5871.627955935855
  0
VERTEX
  8
0
 10
37686.32082480253
 20
-5871.697157843451
  0
VERTEX
  8
0
 10
37690.73186853268
 20
-5871.790979177918
  0
VERTEX
  8
0
 10
37695.01830233993
 20
-5871.907714870377
  0
VERTEX
  8
0
 10
37699.183190849
 20
-5872.045659851949
  0
VERTEX
  8
0
 10
37703.22959868461
 20
-5872.203109053752
  0
VERTEX
  8
0
 10
37707.16059047147
 20
-5872.378357406911
  0
VERTEX
  8
0
 10
37710.97923083431
 20
-5872.569699842546
  0
VERTEX
  8
0
 10
37714.68858439782
 20
-5872.775431291776
  0
VERTEX
  8
0
 10
37718.29171578675
 20
-5872.993846685724
  0
VERTEX
  8
0
 10
37721.79168962579
 20
-5873.223240955509
  0
VERTEX
  8
0
 10
37725.19157053966
 20
-5873.461909032254
  0
VERTEX
  8
0
 10
37728.49442315308
 20
-5873.708145847079
  0
VERTEX
  8
0
 10
37731.70331209077
 20
-5873.960246331105
  0
VERTEX
  8
0
 10
37734.82130197744
 20
-5874.216505415454
  0
VERTEX
  8
0
 10
37737.85145743781
 20
-5874.475218031244
  0
VERTEX
  8
0
 10
37740.79684309658
 20
-5874.734679109599
  0
VERTEX
  8
0
 10
37743.66052357849
 20
-5874.99318358164
  0
VERTEX
  8
0
 10
37746.44556350824
 20
-5875.249026378485
  0
VERTEX
  8
0
 10
37749.15502751055
 20
-5875.500502431258
  0
VERTEX
  8
0
 10
37751.79198021013
 20
-5875.745906671078
  0
VERTEX
  8
0
 10
37754.3594862317
 20
-5875.983534029068
  0
VERTEX
  8
0
 10
37756.86061019998
 20
-5876.211679436346
  0
VERTEX
  8
0
 10
37759.30018590046
 20
-5876.434333442271
  0
VERTEX
  8
0
 10
37761.72337068998
 20
-5876.659587817151
  0
VERTEX
  8
0
 10
37764.14700117785
 20
-5876.87913295858
  0
VERTEX
  8
0
 10
37766.57106910343
 20
-5877.093074682426
  0
VERTEX
  8
0
 10
37768.99556620607
 20
-5877.301518804551
  0
VERTEX
  8
0
 10
37771.42048422511
 20
-5877.504571140826
  0
VERTEX
  8
0
 10
37773.84581489992
 20
-5877.702337507116
  0
VERTEX
  8
0
 10
37776.27154996985
 20
-5877.894923719288
  0
VERTEX
  8
0
 10
37778.69768117424
 20
-5878.082435593211
  0
VERTEX
  8
0
 10
37781.12420025247
 20
-5878.264978944747
  0
VERTEX
  8
0
 10
37783.55109894389
 20
-5878.442659589767
  0
VERTEX
  8
0
 10
37785.97836898784
 20
-5878.615583344135
  0
VERTEX
  8
0
 10
37788.40600212367
 20
-5878.78385602372
  0
VERTEX
  8
0
 10
37790.83399009075
 20
-5878.947583444387
  0
VERTEX
  8
0
 10
37793.26232462843
 20
-5879.106871422003
  0
VERTEX
  8
0
 10
37795.69099747606
 20
-5879.261825772437
  0
VERTEX
  8
0
 10
37798.12000037299
 20
-5879.412552311553
  0
VERTEX
  8
0
 10
37800.54932505858
 20
-5879.559156855218
  0
VERTEX
  8
0
 10
37802.97896327217
 20
-5879.7017452193
  0
VERTEX
  8
0
 10
37805.40890675315
 20
-5879.840423219666
  0
VERTEX
  8
0
 10
37807.83914724084
 20
-5879.975296672182
  0
VERTEX
  8
0
 10
37810.2696764746
 20
-5880.106471392714
  0
VERTEX
  8
0
 10
37812.70048619378
 20
-5880.234053197129
  0
VERTEX
  8
0
 10
37815.13156813775
 20
-5880.358147901295
  0
VERTEX
  8
0
 10
37817.56291404586
 20
-5880.478861321079
  0
VERTEX
  8
0
 10
37819.99451565745
 20
-5880.596299272345
  0
VERTEX
  8
0
 10
37822.42636471189
 20
-5880.710567570963
  0
VERTEX
  8
0
 10
37824.85845294852
 20
-5880.821772032797
  0
VERTEX
  8
0
 10
37827.29077210671
 20
-5880.930018473716
  0
VERTEX
  8
0
 10
37829.7233139258
 20
-5881.035412709585
  0
VERTEX
  8
0
 10
37832.15607014515
 20
-5881.138060556273
  0
VERTEX
  8
0
 10
37834.58903250411
 20
-5881.238067829644
  0
VERTEX
  8
0
 10
37837.02219274204
 20
-5881.335540345567
  0
VERTEX
  8
0
 10
37839.45554259828
 20
-5881.430583919907
  0
VERTEX
  8
0
 10
37841.88907381221
 20
-5881.523304368532
  0
VERTEX
  8
0
 10
37844.32277812315
 20
-5881.613807507308
  0
VERTEX
  8
0
 10
37846.75664727049
 20
-5881.702199152102
  0
VERTEX
  8
0
 10
37849.19067299356
 20
-5881.788585118782
  0
VERTEX
  8
0
 10
37851.62484703171
 20
-5881.873071223213
  0
VERTEX
  8
0
 10
37854.05916112431
 20
-5881.955763281262
  0
VERTEX
  8
0
 10
37856.49360701071
 20
-5882.036767108797
  0
VERTEX
  8
0
 10
37858.92817643026
 20
-5882.116188521682
  0
VERTEX
  8
0
 10
37861.3628611223
 20
-5882.194133335788
  0
VERTEX
  8
0
 10
37863.79765282622
 20
-5882.270707366979
  0
VERTEX
  8
0
 10
37866.23254328134
 20
-5882.346016431121
  0
VERTEX
  8
0
 10
37868.66752422703
 20
-5882.420166344082
  0
VERTEX
  8
0
 10
37871.10258740264
 20
-5882.49326292173
  0
VERTEX
  8
0
 10
37873.53772454753
 20
-5882.56541197993
  0
VERTEX
  8
0
 10
37875.97292740104
 20
-5882.63671933455
  0
VERTEX
  8
0
 10
37878.40818770253
 20
-5882.707290801452
  0
VERTEX
  8
0
 10
37880.84349719136
 20
-5882.77723219651
  0
VERTEX
  8
0
 10
37883.27884760689
 20
-5882.846649335588
  0
VERTEX
  8
0
 10
37885.71423068845
 20
-5882.915648034552
  0
VERTEX
  8
0
 10
37888.1496381754
 20
-5882.984334109266
  0
VERTEX
  8
0
 10
37890.58506180713
 20
-5883.052813375603
  0
VERTEX
  8
0
 10
37895.12870674657
 20
-5883.118075493087
  0
VERTEX
  8
0
 10
37914.45507394937
 20
-5883.073357752535
  0
VERTEX
  8
0
 10
37916.88838066107
 20
-5882.997624148593
  0
VERTEX
  8
0
 10
37919.31991337609
 20
-5882.915568211045
  0
VERTEX
  8
0
 10
37921.74976861871
 20
-5882.827357662711
  0
VERTEX
  8
0
 10
37924.17804291317
 20
-5882.733160226408
  0
VERTEX
  8
0
 10
37926.60483278377
 20
-5882.633143624957
  0
VERTEX
  8
0
 10
37929.03023475476
 20
-5882.527475581176
  0
VERTEX
  8
0
 10
37931.45434535042
 20
-5882.416323817883
  0
VERTEX
  8
0
 10
37933.877261095
 20
-5882.299856057898
  0
VERTEX
  8
0
 10
37936.2990785128
 20
-5882.178240024039
  0
VERTEX
  8
0
 10
37938.71989412804
 20
-5882.051643439127
  0
VERTEX
  8
0
 10
37941.13980446503
 20
-5881.920234025979
  0
VERTEX
  8
0
 10
37943.55890604803
 20
-5881.784179507414
  0
VERTEX
  8
0
 10
37945.97729540129
 20
-5881.643647606251
  0
VERTEX
  8
0
 10
37948.39506904909
 20
-5881.498806045309
  0
VERTEX
  8
0
 10
37950.8123235157
 20
-5881.349822547408
  0
VERTEX
  8
0
 10
37953.22915532537
 20
-5881.196864835364
  0
VERTEX
  8
0
 10
37955.6456610024
 20
-5881.040100631998
  0
VERTEX
  8
0
 10
37958.06193707103
 20
-5880.87969766013
  0
VERTEX
  8
0
 10
37960.47808005553
 20
-5880.715823642577
  0
VERTEX
  8
0
 10
37962.89418648019
 20
-5880.548646302158
  0
VERTEX
  8
0
 10
37965.31035286925
 20
-5880.378333361693
  0
VERTEX
  8
0
 10
37967.726675747
 20
-5880.205052544
  0
VERTEX
  8
0
 10
37970.1432516377
 20
-5880.028971571897
  0
VERTEX
  8
0
 10
37972.56017706561
 20
-5879.850258168206
  0
VERTEX
  8
0
 10
37974.97754855501
 20
-5879.669080055743
  0
VERTEX
  8
0
 10
37977.39546263016
 20
-5879.485604957327
  0
VERTEX
  8
0
 10
37979.81401581533
 20
-5879.300000595778
  0
VERTEX
  8
0
 10
37982.23330463479
 20
-5879.112434693916
  0
VERTEX
  8
0
 10
37984.65342561281
 20
-5878.923074974557
  0
VERTEX
  8
0
 10
37987.07447527364
 20
-5878.732089160522
  0
VERTEX
  8
0
 10
37989.49655014157
 20
-5878.539644974629
  0
VERTEX
  8
0
 10
37991.91974674087
 20
-5878.345910139698
  0
VERTEX
  8
0
 10
37994.34416159579
 20
-5878.151052378546
  0
VERTEX
  8
0
 10
37996.7698912306
 20
-5877.955239413994
  0
VERTEX
  8
0
 10
37999.19703216957
 20
-5877.758638968859
  0
VERTEX
  8
0
 10
38001.62568093699
 20
-5877.56141876596
  0
VERTEX
  8
0
 10
38004.05593405709
 20
-5877.363746528118
  0
VERTEX
  8
0
 10
38006.48788805416
 20
-5877.16578997815
  0
VERTEX
  8
0
 10
38008.92163945247
 20
-5876.967716838876
  0
VERTEX
  8
0
 10
38011.35728477628
 20
-5876.769694833113
  0
VERTEX
  8
0
 10
38013.79492054986
 20
-5876.571891683682
  0
VERTEX
  8
0
 10
38016.23464329748
 20
-5876.374475113402
  0
VERTEX
  8
0
 10
38018.6765495434
 20
-5876.17761284509
  0
VERTEX
  8
0
 10
38021.1207358119
 20
-5875.981472601567
  0
VERTEX
  8
0
 10
38023.56729862724
 20
-5875.786222105649
  0
VERTEX
  8
0
 10
38026.01633451369
 20
-5875.592029080158
  0
VERTEX
  8
0
 10
38028.46793999552
 20
-5875.399061247911
  0
VERTEX
  8
0
 10
38030.922211597
 20
-5875.207486331728
  0
VERTEX
  8
0
 10
38033.37924584238
 20
-5875.017472054426
  0
VERTEX
  8
0
 10
38035.83913925595
 20
-5874.829186138826
  0
VERTEX
  8
0
 10
38038.30198836196
 20
-5874.642796307748
  0
VERTEX
  8
0
 10
38040.76788968469
 20
-5874.458470284007
  0
VERTEX
  8
0
 10
38043.23693974841
 20
-5874.276375790423
  0
VERTEX
  8
0
 10
38045.70923507738
 20
-5874.096680549817
  0
VERTEX
  8
0
 10
38048.17481164683
 20
-5873.925923219215
  0
VERTEX
  8
0
 10
38050.62084193479
 20
-5873.76939188218
  0
VERTEX
  8
0
 10
38053.06679891117
 20
-5873.613741860027
  0
VERTEX
  8
0
 10
38055.51262734656
 20
-5873.459637093127
  0
VERTEX
  8
0
 10
38057.95827201155
 20
-5873.307741521846
  0
VERTEX
  8
0
 10
38060.40367767669
 20
-5873.158719086558
  0
VERTEX
  8
0
 10
38062.84878911258
 20
-5873.013233727632
  0
VERTEX
  8
0
 10
38065.2935510898
 20
-5872.871949385436
  0
VERTEX
  8
0
 10
38067.73790837891
 20
-5872.735530000341
  0
VERTEX
  8
0
 10
38070.1818057505
 20
-5872.604639512719
  0
VERTEX
  8
0
 10
38072.62518797515
 20
-5872.479941862937
  0
VERTEX
  8
0
 10
38075.06799982344
 20
-5872.362100991366
  0
VERTEX
  8
0
 10
38077.51018606594
 20
-5872.251780838375
  0
VERTEX
  8
0
 10
38079.95169147324
 20
-5872.149645344337
  0
VERTEX
  8
0
 10
38082.39246081591
 20
-5872.056358449619
  0
VERTEX
  8
0
 10
38084.83243886453
 20
-5871.972584094591
  0
VERTEX
  8
0
 10
38087.27157038968
 20
-5871.898986219625
  0
VERTEX
  8
0
 10
38089.70980016193
 20
-5871.83622876509
  0
VERTEX
  8
0
 10
38092.14707295188
 20
-5871.784975671354
  0
VERTEX
  8
0
 10
38094.58333353008
 20
-5871.745890878789
  0
VERTEX
  8
0
 10
38097.01852666713
 20
-5871.719638327765
  0
VERTEX
  8
0
 10
38099.4525971336
 20
-5871.706881958651
  0
VERTEX
  8
0
 10
38101.88548970008
 20
-5871.708285711818
  0
VERTEX
  8
0
 10
38104.31714913713
 20
-5871.724513527634
  0
VERTEX
  8
0
 10
38106.74752021534
 20
-5871.756229346473
  0
VERTEX
  8
0
 10
38109.17654770529
 20
-5871.804097108698
  0
VERTEX
  8
0
 10
38111.60417637755
 20
-5871.868780754686
  0
VERTEX
  8
0
 10
38114.0303510027
 20
-5871.950944224804
  0
VERTEX
  8
0
 10
38116.45501635133
 20
-5872.051251459421
  0
VERTEX
  8
0
 10
38118.878117194
 20
-5872.170366398908
  0
VERTEX
  8
0
 10
38121.2995983013
 20
-5872.308952983636
  0
VERTEX
  8
0
 10
38123.71940444381
 20
-5872.467675153973
  0
VERTEX
  8
0
 10
38126.13748039211
 20
-5872.647196850289
  0
VERTEX
  8
0
 10
38128.55377091678
 20
-5872.848182012955
  0
VERTEX
  8
0
 10
38130.96822078837
 20
-5873.071294582341
  0
VERTEX
  8
0
 10
38133.3807747775
 20
-5873.317198498817
  0
VERTEX
  8
0
 10
38152.74091824078
 20
-5891.826987455016
  0
SEQEND
  8
0
  0
POLYLINE
  8
0
 66
     1
  0
VERTEX
  8
0
 10
37632.90754327198
 20
-6288.554314558533
 42
-0.403088505769
  0
VERTEX
  8
0
 10
37646.84077440728
 20
-6273.831424857625
  0
SEQEND
  8
0
  0
LINE
  8
0
 10
38152.74091824078
 20
-5891.826987455016
 11
38152.79084716793
 21
-6440.364318556879
  0
POLYLINE
  8
0
 66
     1
  0
VERTEX
  8
0
 10
38673.07804211262
 20
-5891.826987455016
  0
VERTEX
  8
0
 10
38654.14752679611
 20
-5873.363452458186
  0
VERTEX
  8
0
 10
38652.16522761196
 20
-5873.156269130815
  0
VERTEX
  8
0
 10
38650.1816346308
 20
-5872.964639181294
  0
VERTEX
  8
0
 10
38648.19677850935
 20
-5872.788194070276
  0
VERTEX
  8
0
 10
38646.21068990426
 20
-5872.626565258419
  0
VERTEX
  8
0
 10
38644.22339947226
 20
-5872.479384206375
  0
VERTEX
  8
0
 10
38642.23493787
 20
-5872.346282374801
  0
VERTEX
  8
0
 10
38640.2453357542
 20
-5872.226891224353
  0
VERTEX
  8
0
 10
38638.25462378155
 20
-5872.120842215682
  0
VERTEX
  8
0
 10
38636.26283260874
 20
-5872.027766809448
  0
VERTEX
  8
0
 10
38634.26999289244
 20
-5871.947296466301
  0
VERTEX
  8
0
 10
38632.27613528936
 20
-5871.8790626469
  0
VERTEX
  8
0
 10
38630.28129045619
 20
-5871.822696811898
  0
VERTEX
  8
0
 10
38628.28548904963
 20
-5871.77783042195
  0
VERTEX
  8
0
 10
38626.28876172636
 20
-5871.744094937711
  0
VERTEX
  8
0
 10
38624.29113914305
 20
-5871.721121819838
  0
VERTEX
  8
0
 10
38622.29265195644
 20
-5871.708542528982
  0
VERTEX
  8
0
 10
38620.29333082317
 20
-5871.705988525803
  0
VERTEX
  8
0
 10
38618.29320639996
 20
-5871.713091270953
  0
VERTEX
  8
0
 10
38616.29230934351
 20
-5871.729482225086
  0
VERTEX
  8
0
 10
38614.29067031048
 20
-5871.754792848859
  0
VERTEX
  8
0
 10
38612.28831995759
 20
-5871.788654602928
  0
VERTEX
  8
0
 10
38610.28528894151
 20
-5871.830698947944
  0
VERTEX
  8
0
 10
38608.28160791894
 20
-5871.880557344565
  0
VERTEX
  8
0
 10
38606.27730754658
 20
-5871.937861253446
  0
VERTEX
  8
0
 10
38604.2724184811
 20
-5872.002242135241
  0
VERTEX
  8
0
 10
38602.26697137921
 20
-5872.073331450606
  0
VERTEX
  8
0
 10
38600.2609968976
 20
-5872.150760660195
  0
VERTEX
  8
0
 10
38598.25452569295
 20
-5872.234161224665
  0
VERTEX
  8
0
 10
38596.24758842195
 20
-5872.323164604666
  0
VERTEX
  8
0
 10
38594.24021574131
 20
-5872.417402260859
  0
VERTEX
  8
0
 10
38592.2324383077
 20
-5872.516505653895
  0
VERTEX
  8
0
 10
38590.22428677783
 20
-5872.620106244432
  0
VERTEX
  8
0
 10
38588.21579180837
 20
-5872.727835493122
  0
VERTEX
  8
0
 10
38586.20698405602
 20
-5872.839324860623
  0
VERTEX
  8
0
 10
38584.19789417748
 20
-5872.954205807586
  0
VERTEX
  8
0
 10
38582.18855282943
 20
-5873.072109794669
  0
VERTEX
  8
0
 10
38580.17899066857
 20
-5873.192668282527
  0
VERTEX
  8
0
 10
38578.16923835158
 20
-5873.315512731815
  0
VERTEX
  8
0
 10
38576.15932653515
 20
-5873.440274603187
  0
VERTEX
  8
0
 10
38574.149285876
 20
-5873.566585357298
  0
VERTEX
  8
0
 10
38572.13914703079
 20
-5873.694076454803
  0
VERTEX
  8
0
 10
38570.12894065621
 20
-5873.822379356358
  0
VERTEX
  8
0
 10
38568.11869740897
 20
-5873.951125522618
  0
VERTEX
  8
0
 10
38566.08940589726
 20
-5874.093576108593
  0
VERTEX
  8
0
 10
38564.05729808962
 20
-5874.241039830447
  0
VERTEX
  8
0
 10
38562.02739492813
 20
-5874.39014619457
  0
VERTEX
  8
0
 10
38559.99964283419
 20
-5874.540802101548
  0
VERTEX
  8
0
 10
38557.9739882292
 20
-5874.692914451971
  0
VERTEX
  8
0
 10
38555.95037753458
 20
-5874.846390146426
  0
VERTEX
  8
0
 10
38553.92875717174
 20
-5875.001136085501
  0
VERTEX
  8
0
 10
38551.90907356209
 20
-5875.157059169786
  0
VERTEX
  8
0
 10
38549.89127312702
 20
-5875.314066299869
  0
VERTEX
  8
0
 10
38547.87530228795
 20
-5875.472064376336
  0
VERTEX
  8
0
 10
38545.86110746629
 20
-5875.630960299779
  0
VERTEX
  8
0
 10
38543.84863508345
 20
-5875.790660970784
  0
VERTEX
  8
0
 10
38541.83783156082
 20
-5875.95107328994
  0
VERTEX
  8
0
 10
38539.82864331983
 20
-5876.112104157835
  0
VERTEX
  8
0
 10
38537.82101678187
 20
-5876.273660475057
  0
VERTEX
  8
0
 10
38535.81489836835
 20
-5876.435649142196
  0
VERTEX
  8
0
 10
38533.81023450069
 20
-5876.59797705984
  0
VERTEX
  8
0
 10
38531.80697160029
 20
-5876.760551128575
  0
VERTEX
  8
0
 10
38529.80505608855
 20
-5876.923278248992
  0
VERTEX
  8
0
 10
38527.8044343869
 20
-5877.086065321678
  0
VERTEX
  8
0
 10
38525.80505291672
 20
-5877.24881924722
  0
VERTEX
  8
0
 10
38523.80685809944
 20
-5877.41144692621
  0
VERTEX
  8
0
 10
38521.80979635644
 20
-5877.573855259233
  0
VERTEX
  8
0
 10
38519.81381410916
 20
-5877.73595114688
  0
VERTEX
  8
0
 10
38517.81885777899
 20
-5877.897641489738
  0
VERTEX
  8
0
 10
38515.82487378734
 20
-5878.058833188394
  0
VERTEX
  8
0
 10
38513.83180855562
 20
-5878.219433143439
  0
VERTEX
  8
0
 10
38511.83960850523
 20
-5878.379348255459
  0
VERTEX
  8
0
 10
38509.84822005758
 20
-5878.538485425044
  0
VERTEX
  8
0
 10
38507.85758963409
 20
-5878.696751552782
  0
VERTEX
  8
0
 10
38505.86766365616
 20
-5878.85405353926
  0
VERTEX
  8
0
 10
38503.87838854519
 20
-5879.010298285068
  0
VERTEX
  8
0
 10
38501.8897107226
 20
-5879.165392690794
  0
VERTEX
  8
0
 10
38499.90157660979
 20
-5879.319243657026
  0
VERTEX
  8
0
 10
38497.91393262817
 20
-5879.471758084353
  0
VERTEX
  8
0
 10
38495.92672519913
 20
-5879.622842873361
  0
VERTEX
  8
0
 10
38493.93990074412
 20
-5879.772404924641
  0
VERTEX
  8
0
 10
38491.95340568451
 20
-5879.920351138781
  0
VERTEX
  8
0
 10
38489.96718644172
 20
-5880.066588416368
  0
VERTEX
  8
0
 10
38487.98118943715
 20
-5880.211023657992
  0
VERTEX
  8
0
 10
38485.99536109222
 20
-5880.35356376424
  0
VERTEX
  8
0
 10
38484.00964782834
 20
-5880.4941156357
  0
VERTEX
  8
0
 10
38482.02399606691
 20
-5880.632586172963
  0
VERTEX
  8
0
 10
38480.03835222932
 20
-5880.768882276614
  0
VERTEX
  8
0
 10
38478.05266273701
 20
-5880.902910847243
  0
VERTEX
  8
0
 10
38476.06687401137
 20
-5881.034578785438
  0
VERTEX
  8
0
 10
38474.08093247381
 20
-5881.163792991789
  0
VERTEX
  8
0
 10
38472.09478454573
 20
-5881.290460366882
  0
VERTEX
  8
0
 10
38470.10837664856
 20
-5881.414487811306
  0
VERTEX
  8
0
 10
38468.12165520369
 20
-5881.535782225649
  0
VERTEX
  8
0
 10
38466.13456663252
 20
-5881.654250510502
  0
VERTEX
  8
0
 10
38464.14705735647
 20
-5881.769799566449
  0
VERTEX
  8
0
 10
38462.15907379696
 20
-5881.882336294081
  0
VERTEX
  8
0
 10
38460.17056237537
 20
-5881.991767593987
  0
VERTEX
  8
0
 10
38458.18146951313
 20
-5882.098000366754
  0
VERTEX
  8
0
 10
38456.19174163164
 20
-5882.200941512971
  0
VERTEX
  8
0
 10
38454.20132515229
 20
-5882.300497933224
  0
VERTEX
  8
0
 10
38452.21016649652
 20
-5882.396576528105
  0
VERTEX
  8
0
 10
38450.21821208572
 20
-5882.489084198199
  0
VERTEX
  8
0
 10
38448.22540834129
 20
-5882.577927844098
  0
VERTEX
  8
0
 10
38446.23170168465
 20
-5882.663014366387
  0
VERTEX
  8
0
 10
38444.23703853721
 20
-5882.744250665655
  0
VERTEX
  8
0
 10
38442.24136532038
 20
-5882.821543642493
  0
VERTEX
  8
0
 10
38440.24462845554
 20
-5882.894800197486
  0
VERTEX
  8
0
 10
38438.24677436413
 20
-5882.963927231224
  0
VERTEX
  8
0
 10
38436.24774946755
 20
-5883.028831644296
  0
VERTEX
  8
0
 10
38434.24750018719
 20
-5883.089420337288
  0
VERTEX
  8
0
 10
38412.90948017663
 20
-5883.108612331608
  0
VERTEX
  8
0
 10
38391.5714601662
 20
-5883.089420337288
  0
VERTEX
  8
0
 10
38389.57121088585
 20
-5883.028831644296
  0
VERTEX
  8
0
 10
38387.57218598926
 20
-5882.963927231224
  0
VERTEX
  8
0
 10
38385.57433189785
 20
-5882.894800197486
  0
VERTEX
  8
0
 10
38383.57759503302
 20
-5882.821543642493
  0
VERTEX
  8
0
 10
38381.58192181618
 20
-5882.744250665655
  0
VERTEX
  8
0
 10
38379.58725866873
 20
-5882.663014366386
  0
VERTEX
  8
0
 10
38377.5935520121
 20
-5882.577927844098
  0
VERTEX
  8
0
 10
38375.60074826767
 20
-5882.489084198199
  0
VERTEX
  8
0
 10
38373.60879385687
 20
-5882.396576528105
  0
VERTEX
  8
0
 10
38371.6176352011
 20
-5882.300497933224
  0
VERTEX
  8
0
 10
38369.62721872176
 20
-5882.200941512969
  0
VERTEX
  8
0
 10
38367.63749084026
 20
-5882.098000366753
  0
VERTEX
  8
0
 10
38365.64839797802
 20
-5881.991767593987
  0
VERTEX
  8
0
 10
38363.65988655644
 20
-5881.882336294081
  0
VERTEX
  8
0
 10
38361.67190299691
 20
-5881.769799566449
  0
VERTEX
  8
0
 10
38359.68439372088
 20
-5881.654250510502
  0
VERTEX
  8
0
 10
38357.69730514971
 20
-5881.535782225649
  0
VERTEX
  8
0
 10
38355.71058370484
 20
-5881.414487811306
  0
VERTEX
  8
0
 10
38353.72417580766
 20
-5881.290460366881
  0
VERTEX
  8
0
 10
38351.73802787958
 20
-5881.163792991789
  0
VERTEX
  8
0
 10
38349.75208634202
 20
-5881.034578785438
  0
VERTEX
  8
0
 10
38347.76629761638
 20
-5880.902910847243
  0
VERTEX
  8
0
 10
38345.78060812406
 20
-5880.768882276613
  0
VERTEX
  8
0
 10
38343.79496428649
 20
-5880.632586172962
  0
VERTEX
  8
0
 10
38341.80931252505
 20
-5880.4941156357
  0
VERTEX
  8
0
 10
38339.82359926117
 20
-5880.35356376424
  0
VERTEX
  8
0
 10
38337.83777091624
 20
-5880.211023657991
  0
VERTEX
  8
0
 10
38335.85177391167
 20
-5880.066588416367
  0
VERTEX
  8
0
 10
38333.86555466889
 20
-5879.92035113878
  0
VERTEX
  8
0
 10
38331.87905960927
 20
-5879.772404924641
  0
VERTEX
  8
0
 10
38329.89223515425
 20
-5879.622842873361
  0
VERTEX
  8
0
 10
38327.90502772522
 20
-5879.471758084352
  0
VERTEX
  8
0
 10
38325.9173837436
 20
-5879.319243657025
  0
VERTEX
  8
0
 10
38323.92924963079
 20
-5879.165392690794
  0
VERTEX
  8
0
 10
38321.9405718082
 20
-5879.010298285068
  0
VERTEX
  8
0
 10
38319.95129669723
 20
-5878.854053539259
  0
VERTEX
  8
0
 10
38317.9613707193
 20
-5878.696751552781
  0
VERTEX
  8
0
 10
38315.97074029581
 20
-5878.538485425043
  0
VERTEX
  8
0
 10
38313.97935184816
 20
-5878.379348255459
  0
VERTEX
  8
0
 10
38311.98715179777
 20
-5878.219433143438
  0
VERTEX
  8
0
 10
38309.99408656605
 20
-5878.058833188394
  0
VERTEX
  8
0
 10
38308.0001025744
 20
-5877.897641489738
  0
VERTEX
  8
0
 10
38306.00514624424
 20
-5877.735951146879
  0
VERTEX
  8
0
 10
38304.00916399695
 20
-5877.573855259233
  0
VERTEX
  8
0
 10
38302.01210225396
 20
-5877.411446926209
  0
VERTEX
  8
0
 10
38300.01390743667
 20
-5877.24881924722
  0
VERTEX
  8
0
 10
38298.01452596649
 20
-5877.086065321676
  0
VERTEX
  8
0
 10
38296.01390426484
 20
-5876.923278248992
  0
VERTEX
  8
0
 10
38294.0119887531
 20
-5876.760551128575
  0
VERTEX
  8
0
 10
38292.0087258527
 20
-5876.597977059839
  0
VERTEX
  8
0
 10
38290.00406198503
 20
-5876.435649142196
  0
VERTEX
  8
0
 10
38287.99794357152
 20
-5876.273660475057
  0
VERTEX
  8
0
 10
38285.99031703357
 20
-5876.112104157834
  0
VERTEX
  8
0
 10
38283.98112879257
 20
-5875.951073289939
  0
VERTEX
  8
0
 10
38281.97032526995
 20
-5875.790660970782
  0
VERTEX
  8
0
 10
38279.9578528871
 20
-5875.630960299779
  0
VERTEX
  8
0
 10
38277.94365806544
 20
-5875.472064376336
  0
VERTEX
  8
0
 10
38275.92768722637
 20
-5875.314066299869
  0
VERTEX
  8
0
 10
38273.90988679131
 20
-5875.157059169785
  0
VERTEX
  8
0
 10
38271.89020318165
 20
-5875.001136085501
  0
VERTEX
  8
0
 10
38269.8685828188
 20
-5874.846390146426
  0
VERTEX
  8
0
 10
38267.84497212419
 20
-5874.692914451971
  0
VERTEX
  8
0
 10
38265.81931751921
 20
-5874.540802101547
  0
VERTEX
  8
0
 10
38263.79156542526
 20
-5874.39014619457
  0
VERTEX
  8
0
 10
38261.76166226377
 20
-5874.241039830447
  0
VERTEX
  8
0
 10
38259.72955445611
 20
-5874.093576108592
  0
VERTEX
  8
0
 10
38257.70026294441
 20
-5873.951125522617
  0
VERTEX
  8
0
 10
38255.69001969717
 20
-5873.822379356357
  0
VERTEX
  8
0
 10
38253.6798133226
 20
-5873.694076454803
  0
VERTEX
  8
0
 10
38251.66967447739
 20
-5873.566585357296
  0
VERTEX
  8
0
 10
38249.65963381822
 20
-5873.440274603186
  0
VERTEX
  8
0
 10
38247.64972200181
 20
-5873.315512731815
  0
VERTEX
  8
0
 10
38245.63996968482
 20
-5873.192668282527
  0
VERTEX
  8
0
 10
38243.63040752395
 20
-5873.072109794669
  0
VERTEX
  8
0
 10
38241.6210661759
 20
-5872.954205807585
  0
VERTEX
  8
0
 10
38239.61197629736
 20
-5872.839324860621
  0
VERTEX
  8
0
 10
38237.60316854501
 20
-5872.727835493122
  0
VERTEX
  8
0
 10
38235.59467357556
 20
-5872.620106244432
  0
VERTEX
  8
0
 10
38233.58652204568
 20
-5872.516505653895
  0
VERTEX
  8
0
 10
38231.57874461208
 20
-5872.417402260858
  0
VERTEX
  8
0
 10
38229.57137193143
 20
-5872.323164604665
  0
VERTEX
  8
0
 10
38227.56443466044
 20
-5872.234161224663
  0
VERTEX
  8
0
 10
38225.55796345579
 20
-5872.150760660195
  0
VERTEX
  8
0
 10
38223.55198897417
 20
-5872.073331450606
  0
VERTEX
  8
0
 10
38221.54654187228
 20
-5872.002242135241
  0
VERTEX
  8
0
 10
38219.54165280681
 20
-5871.937861253446
  0
VERTEX
  8
0
 10
38217.53735243445
 20
-5871.880557344565
  0
VERTEX
  8
0
 10
38215.53367141187
 20
-5871.830698947943
  0
VERTEX
  8
0
 10
38213.5306403958
 20
-5871.788654602928
  0
VERTEX
  8
0
 10
38211.5282900429
 20
-5871.754792848859
  0
VERTEX
  8
0
 10
38209.52665100988
 20
-5871.729482225086
  0
VERTEX
  8
0
 10
38207.52575395342
 20
-5871.713091270952
  0
VERTEX
  8
0
 10
38205.52562953022
 20
-5871.705988525803
  0
VERTEX
  8
0
 10
38203.52630839696
 20
-5871.708542528982
  0
VERTEX
  8
0
 10
38201.52782121034
 20
-5871.721121819837
  0
VERTEX
  8
0
 10
38199.53019862704
 20
-5871.744094937712
  0
VERTEX
  8
0
 10
38197.53347130377
 20
-5871.77783042195
  0
VERTEX
  8
0
 10
38195.5376698972
 20
-5871.822696811898
  0
VERTEX
  8
0
 10
38193.54282506403
 20
-5871.8790626469
  0
VERTEX
  8
0
 10
38191.54896746096
 20
-5871.947296466302
  0
VERTEX
  8
0
 10
38189.55612774466
 20
-5872.027766809448
  0
VERTEX
  8
0
 10
38187.56433657184
 20
-5872.120842215683
  0
VERTEX
  8
0
 10
38185.57362459919
 20
-5872.226891224353
  0
VERTEX
  8
0
 10
38183.58402248339
 20
-5872.346282374802
  0
VERTEX
  8
0
 10
38181.59556088114
 20
-5872.479384206376
  0
VERTEX
  8
0
 10
38179.60827044913
 20
-5872.626565258419
  0
VERTEX
  8
0
 10
38177.62218184405
 20
-5872.788194070276
  0
VERTEX
  8
0
 10
38175.63732572258
 20
-5872.964639181294
  0
VERTEX
  8
0
 10
38173.65373274143
 20
-5873.156269130815
  0
VERTEX
  8
0
 10
38171.67143355729
 20
-5873.363452458186
  0
VERTEX
  8
0
 10
38152.74091824079
 20
-5891.826987455016
  0
SEQEND
  8
0
  0
POLYLINE
  8
0
 10
0.0
 20
0.0
 30
0.0
 66
     1
 70
     8
  0
VERTEX
  8
0
 10
39192.90948013985
 20
-6244.388639603913
 30
0.0
 70
    32
  0
VERTEX
  8
0
 10
39192.90948014147
 20
-6244.388639700802
 30
0.0
 70
    32
  0
VERTEX
  8
0
 10
39192.90948014308
 20
-6244.388639797693
 30
0.0
 70
    32
  0
VERTEX
  8
0
 10
39192.90948014468
 20
-6244.388639894582
 30
0.0
 70
    32
  0
VERTEX
  8
0
 10
39192.90948014629
 20
-6244.388639991473
 30
0.0
 70
    32
  0
VERTEX
  8
0
 10
39192.90948014791
 20
-6244.388640088361
 30
0.0
 70
    32
  0
VERTEX
  8
0
 10
39192.90948014952
 20
-6244.388640185251
 30
0.0
 70
    32
  0
VERTEX
  8
0
 10
39192.90948015112
 20
-6244.388640282141
 30
0.0
 70
    32
  0
VERTEX
  8
0
 10
39192.90948015273
 20
-6244.388640379029
 30
0.0
 70
    32
  0
VERTEX
  8
0
 10
39192.90948015435
 20
-6244.38864047592
 30
0.0
 70
    32
  0
VERTEX
  8
0
 10
39192.90948015596
 20
-6244.388640572809
 30
0.0
 70
    32
  0
VERTEX
  8
0
 10
39192.90948015756
 20
-6244.388640669699
 30
0.0
 70
    32
  0
VERTEX
  8
0
 10
39192.90948015917
 20
-6244.388640766589
 30
0.0
 70
    32
  0
VERTEX
  8
0
 10
39192.90948016079
 20
-6244.388640863477
 30
0.0
 70
    32
  0
VERTEX
  8
0
 10
39192.9094801624
 20
-6244.388640960367
 30
0.0
 70
    32
  0
VERTEX
  8
0
 10
39192.90948016399
 20
-6244.388641057257
 30
0.0
 70
    32
  0
VERTEX
  8
0
 10
39192.90948016561
 20
-6244.388641154146
 30
0.0
 70
    32
  0
VERTEX
  8
0
 10
39192.90948016723
 20
-6244.388641251036
 30
0.0
 70
    32
  0
VERTEX
  8
0
 10
39192.90948016884
 20
-6244.388641347926
 30
0.0
 70
    32
  0
VERTEX
  8
0
 10
39192.90948017043
 20
-6244.388641444814
 30
0.0
 70
    32
  0
VERTEX
  8
0
 10
39192.90948017205
 20
-6244.388641541705
 30
0.0
 70
    32
  0
VERTEX
  8
0
 10
39192.90948017366
 20
-6244.388641638594
 30
0.0
 70
    32
  0
VERTEX
  8
0
 10
39192.90948017528
 20
-6244.388641735482
 30
0.0
 70
    32
  0
VERTEX
  8
0
 10
39192.90948017687
 20
-6244.388641832374
 30
0.0
 70
    32
  0
VERTEX
  8
0
 10
39192.90948017848
 20
-6244.388641929262
 30
0.0
 70
    32
  0
SEQEND
  8
0
  0
POLYLINE
  8
0
 66
     1
 70
     1
  0
VERTEX
  8
0
 10
39192.90948017631
 20
-6198.368655828032
 42
-0.07026305415
  0
VERTEX
  8
0
 10
39196.16709616768
 20
-6170.144533049054
 42
-0.101618697399
  0
VERTEX
  8
0
 10
39231.78000455999
 20
-6097.990633328257
 42
-0.236601655473
  0
VERTEX
  8
0
 10
39279.14156063628
 20
-6074.826543530114
  0
VERTEX
  8
0
 10
39303.26189144683
 20
-6074.826543530114
 42
-0.523240917751
  0
VERTEX
  8
0
 10
39322.02620422818
 20
-6101.747636896952
 42
0.088362807038
  0
VERTEX
  8
0
 10
39292.90951832366
 20
-6264.826511343605
  0
VERTEX
  8
0
 10
39292.90951832366
 20
-6539.82651730407
 42
-0.398337629729
  0
VERTEX
  8
0
 10
39287.90952309203
 20
-6544.826519986281
  0
VERTEX
  8
0
 10
39197.9094887309
 20
-6544.826519986263
 42
-0.428549589901
  0
VERTEX
  8
0
 10
39192.90948017669
 20
-6539.82651730407
  0
VERTEX
  8
0
 10
39192.90948017631
 20
-6288.793305355087
  0
SEQEND
  8
0
  0
POLYLINE
  8
0
 66
     1
  0
VERTEX
  8
0
 10
39270.40948017669
 20
-6544.82651730407
  0
VERTEX
  8
0
 10
39270.40948017669
 20
-6664.82651730407
  0
VERTEX
  8
0
 10
39235.40948017669
 20
-6664.82651730407
  0
VERTEX
  8
0
 10
39235.40948017669
 20
-6664.82651730407
  0
VERTEX
  8
0
 10
39215.40948017669
 20
-6544.82651730407
  0
SEQEND
  8
0
  0
LINE
  8
0
 10
37632.90948017686
 20
-6440.364318556879
 11
39192.90948017654
 21
-6440.364318556879
  0
POLYLINE
  8
0
 66
     1
  0
VERTEX
  8
0
 10
39193.1408151375
 20
-6188.470186008296
  0
VERTEX
  8
0
 10
39193.2118575045
 20
-6186.040816739566
  0
VERTEX
  8
0
 10
39193.28852974008
 20
-6183.6116334137
  0
VERTEX
  8
0
 10
39193.37075961156
 20
-6181.182633645007
  0
VERTEX
  8
0
 10
39193.45847488631
 20
-6178.753815047788
  0
VERTEX
  8
0
 10
39193.55160333167
 20
-6176.325175236351
  0
VERTEX
  8
0
 10
39193.65007271498
 20
-6173.896711825001
  0
VERTEX
  8
0
 10
39193.75381080359
 20
-6171.468422428045
  0
VERTEX
  8
0
 10
39193.86274536484
 20
-6169.040304659785
  0
VERTEX
  8
0
 10
39193.9768041661
 20
-6166.61235613453
  0
VERTEX
  8
0
 10
39194.09591497469
 20
-6164.184574466583
  0
VERTEX
  8
0
 10
39194.22000555796
 20
-6161.756957270252
  0
VERTEX
  8
0
 10
39194.34900368327
 20
-6159.32950215984
  0
VERTEX
  8
0
 10
39194.48283711795
 20
-6156.902206749653
  0
VERTEX
  8
0
 10
39194.62143362935
 20
-6154.475068653997
  0
VERTEX
  8
0
 10
39194.76472098481
 20
-6152.048085487179
  0
VERTEX
  8
0
 10
39194.91262695171
 20
-6149.621254863502
  0
VERTEX
  8
0
 10
39195.06507929735
 20
-6147.194574397272
  0
VERTEX
  8
0
 10
39195.2220057891
 20
-6144.768041702795
  0
VERTEX
  8
0
 10
39195.3833341943
 20
-6142.341654394375
  0
VERTEX
  8
0
 10
39195.5489922803
 20
-6139.915410086321
  0
VERTEX
  8
0
 10
39195.71890781444
 20
-6137.489306392933
  0
VERTEX
  8
0
 10
39195.89300856407
 20
-6135.063340928523
  0
VERTEX
  8
0
 10
39196.07122229654
 20
-6132.63751130739
  0
VERTEX
  8
0
 10
39196.25347677919
 20
-6130.211815143845
  0
VERTEX
  8
0
 10
39196.43969977937
 20
-6127.78625005219
  0
VERTEX
  8
0
 10
39196.62981906442
 20
-6125.360813646732
  0
VERTEX
  8
0
 10
39196.82376240168
 20
-6122.935503541775
  0
VERTEX
  8
0
 10
39197.02145755852
 20
-6120.510317351626
  0
VERTEX
  8
0
 10
39197.22283230226
 20
-6118.08525269059
  0
VERTEX
  8
0
 10
39197.42781440027
 20
-6115.660307172972
  0
VERTEX
  8
0
 10
39197.63633161987
 20
-6113.235478413079
  0
VERTEX
  8
0
 10
39197.84831172842
 20
-6110.810764025215
  0
VERTEX
  8
0
 10
39198.06368249327
 20
-6108.386161623685
  0
VERTEX
  8
0
 10
39198.28237168177
 20
-6105.961668822795
  0
VERTEX
  8
0
 10
39198.50430706124
 20
-6103.537283236852
  0
VERTEX
  8
0
 10
39198.72941639905
 20
-6101.113002480159
  0
VERTEX
  8
0
 10
39198.95762746254
 20
-6098.688824167024
  0
VERTEX
  8
0
 10
39199.18886801906
 20
-6096.26474591175
  0
VERTEX
  8
0
 10
39199.42306583594
 20
-6093.840765328644
  0
VERTEX
  8
0
 10
39199.66014868054
 20
-6091.41688003201
  0
VERTEX
  8
0
 10
39199.90004432021
 20
-6088.993087636157
  0
VERTEX
  8
0
 10
39200.14268052227
 20
-6086.569385755386
  0
VERTEX
  8
0
 10
39200.38798505411
 20
-6084.145772004005
  0
VERTEX
  8
0
 10
39200.63588568303
 20
-6081.72224399632
  0
VERTEX
  8
0
 10
39200.8863101764
 20
-6079.298799346634
  0
VERTEX
  8
0
 10
39201.13918630157
 20
-6076.875435669255
  0
VERTEX
  8
0
 10
39201.39444182588
 20
-6074.452150578486
  0
VERTEX
  8
0
 10
39201.65200451666
 20
-6072.028941688635
  0
VERTEX
  8
0
 10
39201.91180214128
 20
-6069.605806614005
  0
VERTEX
  8
0
 10
39202.17376246707
 20
-6067.182742968905
  0
VERTEX
  8
0
 10
39202.43781326139
 20
-6064.759748367636
  0
VERTEX
  8
0
 10
39202.70388229158
 20
-6062.336820424507
  0
VERTEX
  8
0
 10
39202.97189732497
 20
-6059.913956753821
  0
VERTEX
  8
0
 10
39203.24178612893
 20
-6057.491154969886
  0
VERTEX
  8
0
 10
39203.51347647079
 20
-6055.068412687005
  0
VERTEX
  8
0
 10
39203.7868961179
 20
-6052.645727519485
  0
VERTEX
  8
0
 10
39204.06197283762
 20
-6050.223097081631
  0
VERTEX
  8
0
 10
39204.33863439728
 20
-6047.800518987749
  0
VERTEX
  8
0
 10
39204.61680856422
 20
-6045.377990852144
  0
VERTEX
  8
0
 10
39204.89642310581
 20
-6042.955510289121
  0
VERTEX
  8
0
 10
39205.17740578937
 20
-6040.533074912986
  0
VERTEX
  8
0
 10
39205.45968438226
 20
-6038.110682338044
  0
VERTEX
  8
0
 10
39205.74318665182
 20
-6035.688330178602
  0
VERTEX
  8
0
 10
39206.02784036541
 20
-6033.266016048962
  0
VERTEX
  8
0
 10
39206.31357329035
 20
-6030.843737563435
  0
VERTEX
  8
0
 10
39206.60031319402
 20
-6028.421492336321
  0
VERTEX
  8
0
 10
39206.88798784373
 20
-6025.999277981929
  0
VERTEX
  8
0
 10
39207.17652500684
 20
-6023.577092114561
  0
VERTEX
  8
0
 10
39207.46585245072
 20
-6021.154932348527
  0
VERTEX
  8
0
 10
39207.75589794268
 20
-6018.732796298129
  0
VERTEX
  8
0
 10
39208.04658925008
 20
-6016.310681577675
  0
VERTEX
  8
0
 10
39208.33785414028
 20
-6013.888585801466
  0
VERTEX
  8
0
 10
39208.6296203806
 20
-6011.466506583813
  0
VERTEX
  8
0
 10
39208.92181573839
 20
-6009.04444153902
  0
VERTEX
  8
0
 10
39209.21436798103
 20
-6006.622388281389
  0
VERTEX
  8
0
 10
39209.50720487583
 20
-6004.20034442523
  0
VERTEX
  8
0
 10
39209.80025419014
 20
-6001.778307584845
  0
VERTEX
  8
0
 10
39210.09344369132
 20
-5999.356275374542
  0
VERTEX
  8
0
 10
39211.80384149389
 20
-5986.98570618773
  0
VERTEX
  8
0
 10
39220.55715056453
 20
-5925.521590437403
  0
VERTEX
  8
0
 10
39220.92385011363
 20
-5923.11007707866
  0
VERTEX
  8
0
 10
39221.28623772931
 20
-5920.698244334224
  0
VERTEX
  8
0
 10
39221.64169763766
 20
-5918.285898453239
  0
VERTEX
  8
0
 10
39221.98761406475
 20
-5915.872845684858
  0
VERTEX
  8
0
 10
39222.32137123669
 20
-5913.458892278229
  0
VERTEX
  8
0
 10
39222.64035337954
 20
-5911.0438444825
  0
VERTEX
  8
0
 10
39222.9419447194
 20
-5908.627508546822
  0
VERTEX
  8
0
 10
39223.22352948238
 20
-5906.209690720342
  0
VERTEX
  8
0
 10
39223.48249189454
 20
-5903.79019725221
  0
VERTEX
  8
0
 10
39223.71621618198
 20
-5901.368834391576
  0
VERTEX
  8
0
 10
39223.92208657078
 20
-5898.945408387589
  0
VERTEX
  8
0
 10
39224.09748728704
 20
-5896.519725489396
  0
VERTEX
  8
0
 10
39224.23980255685
 20
-5894.091591946148
  0
VERTEX
  8
0
 10
39224.34746368616
 20
-5891.660891564392
  0
VERTEX
  8
0
 10
39224.42696292585
 20
-5889.228105226332
  0
VERTEX
  8
0
 10
39224.4885355825
 20
-5886.793991062997
  0
VERTEX
  8
0
 10
39224.28682227853
 20
-5884.365902061631
  0
VERTEX
  8
0
 10
39223.29607549049
 20
-5881.99551669779
  0
VERTEX
  8
0
 10
39222.18573819029
 20
-5879.77746124175
  0
VERTEX
  8
0
 10
39220.86029671544
 20
-5877.833397413434
  0
VERTEX
  8
0
 10
39219.22806108277
 20
-5876.280116473536
  0
VERTEX
  8
0
 10
39217.27376713428
 20
-5875.137061333859
  0
VERTEX
  8
0
 10
39215.0526771411
 20
-5874.333840986661
  0
VERTEX
  8
0
 10
39212.62269478704
 20
-5873.796699891863
  0
VERTEX
  8
0
 10
39210.0417237559
 20
-5873.451882509381
  0
VERTEX
  8
0
 10
39207.36766773147
 20
-5873.225633299136
  0
VERTEX
  8
0
 10
39203.26575769473
 20
-5872.979266825138
  0
VERTEX
  8
0
 10
39197.12035416205
 20
-5872.665120491144
  0
VERTEX
  8
0
 10
39191.13633604885
 20
-5872.39434934169
  0
VERTEX
  8
0
 10
39185.31063873041
 20
-5872.165248307897
  0
VERTEX
  8
0
 10
39179.64019758202
 20
-5871.976112320885
  0
VERTEX
  8
0
 10
39174.12194797897
 20
-5871.825236311777
  0
VERTEX
  8
0
 10
39168.75282529653
 20
-5871.710915211691
  0
VERTEX
  8
0
 10
39163.52976491001
 20
-5871.63144395175
  0
VERTEX
  8
0
 10
39158.44970219467
 20
-5871.585117463076
  0
VERTEX
  8
0
 10
39153.5095725258
 20
-5871.570230676787
  0
VERTEX
  8
0
 10
39148.70631127869
 20
-5871.585078524006
  0
VERTEX
  8
0
 10
39144.03685382861
 20
-5871.627955935855
  0
VERTEX
  8
0
 10
39139.49813555086
 20
-5871.697157843451
  0
VERTEX
  8
0
 10
39135.08709182072
 20
-5871.790979177918
  0
VERTEX
  8
0
 10
39130.80065801347
 20
-5871.907714870377
  0
VERTEX
  8
0
 10
39126.6357695044
 20
-5872.045659851949
  0
VERTEX
  8
0
 10
39122.58936166879
 20
-5872.203109053752
  0
VERTEX
  8
0
 10
39118.65836988192
 20
-5872.378357406911
  0
VERTEX
  8
0
 10
39114.83972951909
 20
-5872.569699842546
  0
VERTEX
  8
0
 10
39111.13037595557
 20
-5872.775431291776
  0
VERTEX
  8
0
 10
39107.52724456665
 20
-5872.993846685724
  0
VERTEX
  8
0
 10
39104.02727072761
 20
-5873.223240955509
  0
VERTEX
  8
0
 10
39100.62738981374
 20
-5873.461909032254
  0
VERTEX
  8
0
 10
39097.32453720031
 20
-5873.708145847079
  0
VERTEX
  8
0
 10
39094.11564826262
 20
-5873.960246331105
  0
VERTEX
  8
0
 10
39090.99765837596
 20
-5874.216505415454
  0
VERTEX
  8
0
 10
39087.96750291559
 20
-5874.475218031244
  0
VERTEX
  8
0
 10
39085.02211725681
 20
-5874.734679109599
  0
VERTEX
  8
0
 10
39082.15843677491
 20
-5874.99318358164
  0
VERTEX
  8
0
 10
39079.37339684516
 20
-5875.249026378485
  0
VERTEX
  8
0
 10
39076.66393284285
 20
-5875.500502431258
  0
VERTEX
  8
0
 10
39074.02698014327
 20
-5875.745906671078
  0
VERTEX
  8
0
 10
39071.45947412169
 20
-5875.983534029068
  0
VERTEX
  8
0
 10
39068.95835015341
 20
-5876.211679436346
  0
VERTEX
  8
0
 10
39066.51877445294
 20
-5876.434333442271
  0
VERTEX
  8
0
 10
39064.09558966342
 20
-5876.659587817151
  0
VERTEX
  8
0
 10
39061.67195917555
 20
-5876.87913295858
  0
VERTEX
  8
0
 10
39059.24789124996
 20
-5877.093074682426
  0
VERTEX
  8
0
 10
39056.82339414733
 20
-5877.301518804551
  0
VERTEX
  8
0
 10
39054.39847612829
 20
-5877.504571140826
  0
VERTEX
  8
0
 10
39051.97314545348
 20
-5877.702337507116
  0
VERTEX
  8
0
 10
39049.54741038355
 20
-5877.894923719288
  0
VERTEX
  8
0
 10
39047.12127917915
 20
-5878.082435593211
  0
VERTEX
  8
0
 10
39044.69476010092
 20
-5878.264978944747
  0
VERTEX
  8
0
 10
39042.26786140951
 20
-5878.442659589767
  0
VERTEX
  8
0
 10
39039.84059136556
 20
-5878.615583344135
  0
VERTEX
  8
0
 10
39037.41295822972
 20
-5878.78385602372
  0
VERTEX
  8
0
 10
39034.98497026265
 20
-5878.947583444387
  0
VERTEX
  8
0
 10
39032.55663572496
 20
-5879.106871422003
  0
VERTEX
  8
0
 10
39030.12796287734
 20
-5879.261825772437
  0
VERTEX
  8
0
 10
39027.69895998041
 20
-5879.412552311553
  0
VERTEX
  8
0
 10
39025.26963529482
 20
-5879.559156855218
  0
VERTEX
  8
0
 10
39022.83999708122
 20
-5879.7017452193
  0
VERTEX
  8
0
 10
39020.41005360025
 20
-5879.840423219666
  0
VERTEX
  8
0
 10
39017.97981311256
 20
-5879.975296672182
  0
VERTEX
  8
0
 10
39015.5492838788
 20
-5880.106471392714
  0
VERTEX
  8
0
 10
39013.11847415962
 20
-5880.234053197129
  0
VERTEX
  8
0
 10
39010.68739221564
 20
-5880.358147901295
  0
VERTEX
  8
0
 10
39008.25604630754
 20
-5880.478861321079
  0
VERTEX
  8
0
 10
39005.82444469594
 20
-5880.596299272345
  0
VERTEX
  8
0
 10
39003.39259564151
 20
-5880.710567570963
  0
VERTEX
  8
0
 10
39000.96050740487
 20
-5880.821772032797
  0
VERTEX
  8
0
 10
38998.52818824669
 20
-5880.930018473716
  0
VERTEX
  8
0
 10
38996.0956464276
 20
-5881.035412709585
  0
VERTEX
  8
0
 10
38993.66289020824
 20
-5881.138060556273
  0
VERTEX
  8
0
 10
38991.22992784929
 20
-5881.238067829644
  0
VERTEX
  8
0
 10
38988.79676761136
 20
-5881.335540345567
  0
VERTEX
  8
0
 10
38986.36341775511
 20
-5881.430583919907
  0
VERTEX
  8
0
 10
38983.92988654118
 20
-5881.523304368532
  0
VERTEX
  8
0
 10
38981.49618223024
 20
-5881.613807507308
  0
VERTEX
  8
0
 10
38979.06231308291
 20
-5881.702199152102
  0
VERTEX
  8
0
 10
38976.62828735984
 20
-5881.788585118782
  0
VERTEX
  8
0
 10
38974.19411332169
 20
-5881.873071223213
  0
VERTEX
  8
0
 10
38971.75979922909
 20
-5881.955763281262
  0
VERTEX
  8
0
 10
38969.32535334269
 20
-5882.036767108797
  0
VERTEX
  8
0
 10
38966.89078392314
 20
-5882.116188521682
  0
VERTEX
  8
0
 10
38964.45609923109
 20
-5882.194133335788
  0
VERTEX
  8
0
 10
38962.02130752718
 20
-5882.270707366979
  0
VERTEX
  8
0
 10
38959.58641707205
 20
-5882.346016431121
  0
VERTEX
  8
0
 10
38957.15143612637
 20
-5882.420166344082
  0
VERTEX
  8
0
 10
38954.71637295076
 20
-5882.49326292173
  0
VERTEX
  8
0
 10
38952.28123580587
 20
-5882.56541197993
  0
VERTEX
  8
0
 10
38949.84603295236
 20
-5882.63671933455
  0
VERTEX
  8
0
 10
38947.41077265087
 20
-5882.707290801452
  0
VERTEX
  8
0
 10
38944.97546316204
 20
-5882.77723219651
  0
VERTEX
  8
0
 10
38942.54011274651
 20
-5882.846649335588
  0
VERTEX
  8
0
 10
38940.10472966495
 20
-5882.915648034552
  0
VERTEX
  8
0
 10
38937.66932217799
 20
-5882.984334109266
  0
VERTEX
  8
0
 10
38935.23389854627
 20
-5883.052813375603
  0
VERTEX
  8
0
 10
38930.69025360682
 20
-5883.118075493087
  0
VERTEX
  8
0
 10
38911.36388640403
 20
-5883.073357752535
  0
VERTEX
  8
0
 10
38908.93057969233
 20
-5882.997624148593
  0
VERTEX
  8
0
 10
38906.4990469773
 20
-5882.915568211045
  0
VERTEX
  8
0
 10
38904.06919173469
 20
-5882.827357662711
  0
VERTEX
  8
0
 10
38901.64091744023
 20
-5882.733160226408
  0
VERTEX
  8
0
 10
38899.21412756963
 20
-5882.633143624957
  0
VERTEX
  8
0
 10
38896.78872559864
 20
-5882.527475581176
  0
VERTEX
  8
0
 10
38894.36461500297
 20
-5882.416323817883
  0
VERTEX
  8
0
 10
38891.94169925839
 20
-5882.299856057898
  0
VERTEX
  8
0
 10
38889.5198818406
 20
-5882.178240024039
  0
VERTEX
  8
0
 10
38887.09906622535
 20
-5882.051643439127
  0
VERTEX
  8
0
 10
38884.67915588836
 20
-5881.920234025979
  0
VERTEX
  8
0
 10
38882.26005430536
 20
-5881.784179507414
  0
VERTEX
  8
0
 10
38879.84166495211
 20
-5881.643647606251
  0
VERTEX
  8
0
 10
38877.42389130431
 20
-5881.498806045309
  0
VERTEX
  8
0
 10
38875.0066368377
 20
-5881.349822547408
  0
VERTEX
  8
0
 10
38872.58980502802
 20
-5881.196864835364
  0
VERTEX
  8
0
 10
38870.173299351
 20
-5881.040100631998
  0
VERTEX
  8
0
 10
38867.75702328237
 20
-5880.87969766013
  0
VERTEX
  8
0
 10
38865.34088029787
 20
-5880.715823642577
  0
VERTEX
  8
0
 10
38862.92477387321
 20
-5880.548646302158
  0
VERTEX
  8
0
 10
38860.50860748415
 20
-5880.378333361693
  0
VERTEX
  8
0
 10
38858.0922846064
 20
-5880.205052544
  0
VERTEX
  8
0
 10
38855.6757087157
 20
-5880.028971571897
  0
VERTEX
  8
0
 10
38853.25878328778
 20
-5879.850258168206
  0
VERTEX
  8
0
 10
38850.84141179838
 20
-5879.669080055743
  0
VERTEX
  8
0
 10
38848.42349772323
 20
-5879.485604957327
  0
VERTEX
  8
0
 10
38846.00494453806
 20
-5879.300000595778
  0
VERTEX
  8
0
 10
38843.58565571861
 20
-5879.112434693916
  0
VERTEX
  8
0
 10
38841.16553474059
 20
-5878.923074974557
  0
VERTEX
  8
0
 10
38838.74448507975
 20
-5878.732089160522
  0
VERTEX
  8
0
 10
38836.32241021183
 20
-5878.539644974629
  0
VERTEX
  8
0
 10
38833.89921361253
 20
-5878.345910139698
  0
VERTEX
  8
0
 10
38831.47479875761
 20
-5878.151052378546
  0
VERTEX
  8
0
 10
38829.0490691228
 20
-5877.955239413994
  0
VERTEX
  8
0
 10
38826.62192818383
 20
-5877.758638968859
  0
VERTEX
  8
0
 10
38824.19327941641
 20
-5877.56141876596
  0
VERTEX
  8
0
 10
38821.76302629631
 20
-5877.363746528118
  0
VERTEX
  8
0
 10
38819.33107229924
 20
-5877.16578997815
  0
VERTEX
  8
0
 10
38816.89732090093
 20
-5876.967716838876
  0
VERTEX
  8
0
 10
38814.46167557711
 20
-5876.769694833113
  0
VERTEX
  8
0
 10
38812.02403980354
 20
-5876.571891683682
  0
VERTEX
  8
0
 10
38809.58431705592
 20
-5876.374475113402
  0
VERTEX
  8
0
 10
38807.14241081
 20
-5876.17761284509
  0
VERTEX
  8
0
 10
38804.6982245415
 20
-5875.981472601567
  0
VERTEX
  8
0
 10
38802.25166172616
 20
-5875.786222105649
  0
VERTEX
  8
0
 10
38799.80262583971
 20
-5875.592029080158
  0
VERTEX
  8
0
 10
38797.35102035788
 20
-5875.399061247911
  0
VERTEX
  8
0
 10
38794.8967487564
 20
-5875.207486331728
  0
VERTEX
  8
0
 10
38792.43971451102
 20
-5875.017472054426
  0
VERTEX
  8
0
 10
38789.97982109745
 20
-5874.829186138826
  0
VERTEX
  8
0
 10
38787.51697199143
 20
-5874.642796307748
  0
VERTEX
  8
0
 10
38785.05107066871
 20
-5874.458470284007
  0
VERTEX
  8
0
 10
38782.58202060498
 20
-5874.276375790423
  0
VERTEX
  8
0
 10
38780.10972527602
 20
-5874.096680549817
  0
VERTEX
  8
0
 10
38777.64414870657
 20
-5873.925923219215
  0
VERTEX
  8
0
 10
38775.19811841861
 20
-5873.76939188218
  0
VERTEX
  8
0
 10
38772.75216144223
 20
-5873.613741860027
  0
VERTEX
  8
0
 10
38770.30633300684
 20
-5873.459637093127
  0
VERTEX
  8
0
 10
38767.86068834185
 20
-5873.307741521846
  0
VERTEX
  8
0
 10
38765.41528267671
 20
-5873.158719086558
  0
VERTEX
  8
0
 10
38762.97017124081
 20
-5873.013233727632
  0
VERTEX
  8
0
 10
38760.5254092636
 20
-5872.871949385436
  0
VERTEX
  8
0
 10
38758.08105197449
 20
-5872.735530000341
  0
VERTEX
  8
0
 10
38755.6371546029
 20
-5872.604639512719
  0
VERTEX
  8
0
 10
38753.19377237825
 20
-5872.479941862937
  0
VERTEX
  8
0
 10
38750.75096052996
 20
-5872.362100991366
  0
VERTEX
  8
0
 10
38748.30877428746
 20
-5872.251780838375
  0
VERTEX
  8
0
 10
38745.86726888015
 20
-5872.149645344337
  0
VERTEX
  8
0
 10
38743.42649953749
 20
-5872.056358449619
  0
VERTEX
  8
0
 10
38740.98652148887
 20
-5871.972584094591
  0
VERTEX
  8
0
 10
38738.54738996372
 20
-5871.898986219625
  0
VERTEX
  8
0
 10
38736.10916019147
 20
-5871.83622876509
  0
VERTEX
  8
0
 10
38733.67188740152
 20
-5871.784975671354
  0
VERTEX
  8
0
 10
38731.23562682331
 20
-5871.745890878789
  0
VERTEX
  8
0
 10
38728.80043368627
 20
-5871.719638327765
  0
VERTEX
  8
0
 10
38726.36636321979
 20
-5871.706881958651
  0
VERTEX
  8
0
 10
38723.93347065332
 20
-5871.708285711818
  0
VERTEX
  8
0
 10
38721.50181121627
 20
-5871.724513527634
  0
VERTEX
  8
0
 10
38719.07144013806
 20
-5871.756229346473
  0
VERTEX
  8
0
 10
38716.64241264811
 20
-5871.804097108698
  0
VERTEX
  8
0
 10
38714.21478397585
 20
-5871.868780754686
  0
VERTEX
  8
0
 10
38711.7886093507
 20
-5871.950944224804
  0
VERTEX
  8
0
 10
38709.36394400207
 20
-5872.051251459421
  0
VERTEX
  8
0
 10
38706.9408431594
 20
-5872.170366398908
  0
VERTEX
  8
0
 10
38704.51936205209
 20
-5872.308952983636
  0
VERTEX
  8
0
 10
38702.09955590958
 20
-5872.467675153973
  0
VERTEX
  8
0
 10
38699.68147996128
 20
-5872.647196850289
  0
VERTEX
  8
0
 10
38697.26518943662
 20
-5872.848182012955
  0
VERTEX
  8
0
 10
38694.85073956502
 20
-5873.071294582341
  0
VERTEX
  8
0
 10
38692.4381855759
 20
-5873.317198498817
  0
VERTEX
  8
0
 10
38673.07804211262
 20
-5891.826987455016
  0
SEQEND
  8
0
  0
POLYLINE
  8
0
 66
     1
 70
   128
  0
VERTEX
  8
0
 10
39088.48768254639
 20
-6267.367817473335
  0
VERTEX
  8
0
 10
39178.97818594611
 20
-6273.831424857625
  0
VERTEX
  8
0
 10
39088.48768254639
 20
-6267.367817473335
 42
0.014584366957
  0
VERTEX
  8
0
 10
39017.24063255848
 20
-6264.82651730407
  0
VERTEX
  8
0
 10
38922.84314017199
 20
-6264.82651730407
  0
VERTEX
  8
0
 10
38673.07804211262
 20
-6264.82651730407
  0
VERTEX
  8
0
 10
38673.04409097835
 20
-6264.826481790878
  0
VERTEX
  8
0
 10
38412.90948017669
 20
-6264.826481790878
  0
VERTEX
  8
0
 10
38152.77486937505
 20
-6264.826481790878
  0
VERTEX
  8
0
 10
38152.74091824078
 20
-6264.82651730407
  0
VERTEX
  8
0
 10
37902.97582018141
 20
-6264.82651730407
  0
VERTEX
  8
0
 10
37808.57832779492
 20
-6264.82651730407
 42
0.014584366957
  0
VERTEX
  8
0
 10
37737.331277807
 20
-6267.367817473335
  0
VERTEX
  8
0
 10
37646.84077440728
 20
-6273.831424857625
  0
VERTEX
  8
0
 10
37737.33127780701
 20
-6267.367817473335
  0
SEQEND
  8
0
  0
POLYLINE
  8
0
 66
     1
  0
VERTEX
  8
0
 10
39192.91141708141
 20
-6288.554314558533
 42
0.403088505769
  0
VERTEX
  8
0
 10
39178.97818594611
 20
-6273.831424857625
  0
SEQEND
  8
0
  0
LINE
  8
0
 10
38673.07804211262
 20
-5891.826987455016
 11
38673.02811318547
 21
-6440.364318556879
  0
POLYLINE
  8
0
 66
     1
  0
VERTEX
  8
0
 10
39197.79061404227
 20
-6544.827967303388
  0
VERTEX
  8
0
 10
38412.90948017669
 20
-6544.826884955352
  0
VERTEX
  8
0
 10
37628.02834631113
 20
-6544.827967303388
  0
SEQEND
  8
0
  0
DIMENSION
  8
1DIM
  2
*D482
 10
39323.26190446367
 20
-6814.82651730407
 11
38412.90943597307
 21
-6765.82651730407
 70
    32
  1
1820
 13
37502.55696748247
 23
-6664.82651730407
 33
0.0
 14
39323.26190446367
 24
-6664.82651730407
 34
0.0
  0
DIMENSION
  8
1DIM
  2
*D483
 10
37352.55696748247
 20
-6664.82651730407
 11
37303.55696748247
 21
-6464.826499547474
 70
    32
 13
37502.55696748247
 23
-6264.826481790878
 33
0.0
 14
37502.55696748247
 24
-6664.82651730407
 34
0.0
 50
90.0
  0
POLYLINE
  8
0
 66
     1
  0
VERTEX
  8
0
 10
37632.90934537401
 20
-5005.766540706744
  0
VERTEX
  8
0
 10
37632.90934537401
 20
-5491.726838767211
 42
-0.413965955855
  0
VERTEX
  8
0
 10
37617.90935112491
 20
-5506.713703812423
  0
VERTEX
  8
0
 10
37517.556912954
 20
-5506.713704147699
 42
-0.419950095054
  0
VERTEX
  8
0
 10
37502.55696748246
 20
-5491.713704482975
  0
VERTEX
  8
0
 10
37502.55696748247
 20
-4781.713694275678
 42
-0.43772166494
  0
VERTEX
  8
0
 10
37512.55695794572
 20
-4771.713703812419
  0
VERTEX
  8
0
 10
37622.90935112491
 20
-4771.713703812419
 42
-0.414154868071
  0
VERTEX
  8
0
 10
37632.90934537401
 20
-4781.656309320801
  0
VERTEX
  8
0
 10
37632.90934537401
 20
-4837.894331147737
  0
SEQEND
  8
0
  0
POLYLINE
  8
0
 66
     1
  0
VERTEX
  8
0
 10
38152.90956217887
 20
-4990.676881866005
  0
VERTEX
  8
0
 10
38152.11625005718
 20
-4991.572279330155
  0
VERTEX
  8
0
 10
38151.29935147129
 20
-4992.448969261181
  0
VERTEX
  8
0
 10
38150.45927347495
 20
-4993.307274512556
  0
VERTEX
  8
0
 10
38149.59642312196
 20
-4994.147517937759
  0
VERTEX
  8
0
 10
38148.71120746608
 20
-4994.970022390264
  0
VERTEX
  8
0
 10
38147.80403356108
 20
-4995.775110723545
  0
VERTEX
  8
0
 10
38146.87530846074
 20
-4996.563105791081
  0
VERTEX
  8
0
 10
38145.92543921883
 20
-4997.334330446346
  0
VERTEX
  8
0
 10
38144.95483288913
 20
-4998.089107542816
  0
VERTEX
  8
0
 10
38143.96389652539
 20
-4998.827759933965
  0
VERTEX
  8
0
 10
38142.95303718142
 20
-4999.55061047327
  0
VERTEX
  8
0
 10
38141.92266191095
 20
-5000.257982014208
  0
VERTEX
  8
0
 10
38140.8731777678
 20
-5000.950197410251
  0
VERTEX
  8
0
 10
38139.80499180571
 20
-5001.627579514879
  0
VERTEX
  8
0
 10
38138.71851107847
 20
-5002.290451181563
  0
VERTEX
  8
0
 10
38137.61414263984
 20
-5002.939135263782
  0
VERTEX
  8
0
 10
38136.4922935436
 20
-5003.573954615011
  0
VERTEX
  8
0
 10
38135.35337084353
 20
-5004.195232088723
  0
VERTEX
  8
0
 10
38134.19778159339
 20
-5004.803290538397
  0
VERTEX
  8
0
 10
38133.02593284695
 20
-5005.398452817507
  0
VERTEX
  8
0
 10
38131.83823165801
 20
-5005.981041779528
  0
VERTEX
  8
0
 10
38130.63508508032
 20
-5006.551380277937
  0
VERTEX
  8
0
 10
38129.41690016766
 20
-5007.109791166209
  0
VERTEX
  8
0
 10
38128.18408397381
 20
-5007.656597297821
  0
VERTEX
  8
0
 10
38126.93704355253
 20
-5008.192121526246
  0
VERTEX
  8
0
 10
38125.6761859576
 20
-5008.716686704961
  0
VERTEX
  8
0
 10
38124.40191824279
 20
-5009.230615687441
  0
VERTEX
  8
0
 10
38123.11464746187
 20
-5009.734231327163
  0
VERTEX
  8
0
 10
38121.81478066863
 20
-5010.227856477601
  0
VERTEX
  8
0
 10
38120.50272491683
 20
-5010.711813992231
  0
VERTEX
  8
0
 10
38119.17888726025
 20
-5011.186426724529
  0
VERTEX
  8
0
 10
38117.84367475266
 20
-5011.652017527971
  0
VERTEX
  8
0
 10
38116.49749444782
 20
-5012.108909256031
  0
VERTEX
  8
0
 10
38115.14075339952
 20
-5012.557424762187
  0
VERTEX
  8
0
 10
38113.77385866154
 20
-5012.997886899911
  0
VERTEX
  8
0
 10
38112.39721728763
 20
-5013.430618522683
  0
VERTEX
  8
0
 10
38111.01123633159
 20
-5013.855942483976
  0
VERTEX
  8
0
 10
38109.61632284716
 20
-5014.274181637265
  0
VERTEX
  8
0
 10
38108.21288388815
 20
-5014.685658836028
  0
VERTEX
  8
0
 10
38106.8013265083
 20
-5015.090696933739
  0
VERTEX
  8
0
 10
38105.3820577614
 20
-5015.489618783873
  0
VERTEX
  8
0
 10
38103.95548470123
 20
-5015.882747239908
  0
VERTEX
  8
0
 10
38102.52201438155
 20
-5016.270405155316
  0
VERTEX
  8
0
 10
38101.08205385615
 20
-5016.652915383576
  0
VERTEX
  8
0
 10
38099.63601017878
 20
-5017.030600778163
  0
VERTEX
  8
0
 10
38098.18429040322
 20
-5017.403784192551
  0
VERTEX
  8
0
 10
38096.72730158326
 20
-5017.772788480216
  0
VERTEX
  8
0
 10
38095.26545077265
 20
-5018.137936494634
  0
VERTEX
  8
0
 10
38093.79914502519
 20
-5018.49955108928
  0
VERTEX
  8
0
 10
38092.32879139463
 20
-5018.857955117632
  0
VERTEX
  8
0
 10
38090.85479693476
 20
-5019.213471433162
  0
VERTEX
  8
0
 10
38089.37756869933
 20
-5019.566422889349
  0
VERTEX
  8
0
 10
38087.89751374213
 20
-5019.917132339667
  0
VERTEX
  8
0
 10
38086.41503911694
 20
-5020.265922637592
  0
VERTEX
  8
0
 10
38084.93055187751
 20
-5020.613116636598
  0
VERTEX
  8
0
 10
38083.44445907765
 20
-5020.959037190162
  0
VERTEX
  8
0
 10
38081.95716777109
 20
-5021.304007151761
  0
VERTEX
  8
0
 10
38080.46908501165
 20
-5021.648349374867
  0
VERTEX
  8
0
 10
38060.14571848583
 20
-5021.973241774819
  0
VERTEX
  8
0
 10
37764.50273637783
 20
-5022.308568264199
  0
VERTEX
  8
0
 10
37636.70939649646
 20
-5013.623244399869
  0
VERTEX
  8
0
 10
37632.92473482448
 20
-5005.541194032001
  0
VERTEX
  8
0
 10
37632.96206199753
 20
-5004.217832621987
  0
VERTEX
  8
0
 10
37632.98927667106
 20
-5002.894227986246
  0
VERTEX
  8
0
 10
37633.00648566226
 20
-5001.570382693938
  0
VERTEX
  8
0
 10
37633.01379578829
 20
-5000.246299314233
  0
VERTEX
  8
0
 10
37633.01131386635
 20
-4998.921980416294
  0
VERTEX
  8
0
 10
37632.9991467136
 20
-4997.597428569287
  0
VERTEX
  8
0
 10
37632.97740114723
 20
-4996.272646342381
  0
VERTEX
  8
0
 10
37632.94618398441
 20
-4994.947636304736
  0
VERTEX
  8
0
 10
37632.90560204231
 20
-4993.622401025521
  0
VERTEX
  8
0
 10
37632.85576213812
 20
-4992.296943073901
  0
VERTEX
  8
0
 10
37632.79677108902
 20
-4990.971265019041
  0
VERTEX
  8
0
 10
37632.72873571216
 20
-4989.645369430109
  0
VERTEX
  8
0
 10
37632.65176282475
 20
-4988.319258876268
  0
VERTEX
  8
0
 10
37632.56595924396
 20
-4986.992935926683
  0
VERTEX
  8
0
 10
37632.47143178694
 20
-4985.666403150523
  0
VERTEX
  8
0
 10
37632.3682872709
 20
-4984.339663116951
  0
VERTEX
  8
0
 10
37632.256632513
 20
-4983.012718395134
  0
VERTEX
  8
0
 10
37632.13657433043
 20
-4981.685571554235
  0
VERTEX
  8
0
 10
37632.00821954036
 20
-4980.358225163422
  0
VERTEX
  8
0
 10
37631.87167495996
 20
-4979.03068179186
  0
VERTEX
  8
0
 10
37631.72704740642
 20
-4977.702944008714
  0
VERTEX
  8
0
 10
37631.57444369691
 20
-4976.37501438315
  0
VERTEX
  8
0
 10
37631.4139706486
 20
-4975.046895484335
  0
VERTEX
  8
0
 10
37631.24573507869
 20
-4973.718589881432
  0
VERTEX
  8
0
 10
37631.06984380433
 20
-4972.39010014361
  0
VERTEX
  8
0
 10
37630.88640364271
 20
-4971.061428840031
  0
VERTEX
  8
0
 10
37630.69552141101
 20
-4969.732578539862
  0
VERTEX
  8
0
 10
37630.4973039264
 20
-4968.40355181227
  0
VERTEX
  8
0
 10
37630.29185800607
 20
-4967.074351226418
  0
VERTEX
  8
0
 10
37630.07929046718
 20
-4965.744979351474
  0
VERTEX
  8
0
 10
37629.85970812691
 20
-4964.415438756602
  0
VERTEX
  8
0
 10
37629.63321780245
 20
-4963.085732010968
  0
VERTEX
  8
0
 10
37629.39992631097
 20
-4961.755861683739
  0
VERTEX
  8
0
 10
37629.15994046965
 20
-4960.425830344078
  0
VERTEX
  8
0
 10
37628.91336709565
 20
-4959.095640561153
  0
VERTEX
  8
0
 10
37628.66031300618
 20
-4957.765294904128
  0
VERTEX
  8
0
 10
37628.40088501838
 20
-4956.434795942169
  0
VERTEX
  8
0
 10
37628.13518994945
 20
-4955.104146244442
  0
VERTEX
  8
0
 10
37627.86333461657
 20
-4953.773348380112
  0
VERTEX
  8
0
 10
37627.58542583691
 20
-4952.442404918345
  0
VERTEX
  8
0
 10
37627.30157042764
 20
-4951.111318428307
  0
VERTEX
  8
0
 10
37627.01187520594
 20
-4949.780091479163
  0
VERTEX
  8
0
 10
37626.716446989
 20
-4948.448726640079
  0
VERTEX
  8
0
 10
37626.41539259398
 20
-4947.11722648022
  0
VERTEX
  8
0
 10
37626.10881883807
 20
-4945.785593568752
  0
VERTEX
  8
0
 10
37625.79683253845
 20
-4944.45383047484
  0
VERTEX
  8
0
 10
37625.47954051228
 20
-4943.121939767651
  0
VERTEX
  8
0
 10
37625.15704957675
 20
-4941.78992401635
  0
VERTEX
  8
0
 10
37624.82946654903
 20
-4940.457785790101
  0
VERTEX
  8
0
 10
37624.49689824631
 20
-4939.125527658072
  0
VERTEX
  8
0
 10
37624.15945148575
 20
-4937.793152189428
  0
VERTEX
  8
0
 10
37623.81723308454
 20
-4936.460661953333
  0
VERTEX
  8
0
 10
37623.47034985985
 20
-4935.128059518955
  0
VERTEX
  8
0
 10
37623.11890862886
 20
-4933.795347455457
  0
VERTEX
  8
0
 10
37622.76301620874
 20
-4932.462528332007
  0
VERTEX
  8
0
 10
37622.40277941668
 20
-4931.129604717768
  0
VERTEX
  8
0
 10
37622.03830506986
 20
-4929.796579181909
  0
VERTEX
  8
0
 10
37621.66969998543
 20
-4928.463454293593
  0
VERTEX
  8
0
 10
37621.2970709806
 20
-4927.130232621986
  0
VERTEX
  8
0
 10
37620.92052487253
 20
-4925.796916736254
  0
VERTEX
  8
0
 10
37620.5401684784
 20
-4924.463509205563
  0
VERTEX
  8
0
 10
37620.15610861539
 20
-4923.130012599078
  0
VERTEX
  8
0
 10
37619.76845210066
 20
-4921.796429485965
  0
VERTEX
  8
0
 10
37619.37730575141
 20
-4920.462762435389
  0
VERTEX
  8
0
 10
37618.98277638481
 20
-4919.129014016516
  0
VERTEX
  8
0
 10
37618.58497081803
 20
-4917.795186798511
  0
VERTEX
  8
0
 10
37618.18399586826
 20
-4916.461283350541
  0
VERTEX
  8
0
 10
37617.77995835266
 20
-4915.12730624177
  0
VERTEX
  8
0
 10
37617.37296508843
 20
-4913.793258041364
  0
VERTEX
  8
0
 10
37616.96312289272
 20
-4912.45914131849
  0
VERTEX
  8
0
 10
37616.55053858274
 20
-4911.124958642313
  0
VERTEX
  8
0
 10
37616.13531897563
 20
-4909.790712581997
  0
VERTEX
  8
0
 10
37615.71757088859
 20
-4908.456405706708
  0
VERTEX
  8
0
 10
37615.29740113881
 20
-4907.122040585614
  0
VERTEX
  8
0
 10
37614.87491654343
 20
-4905.787619787879
  0
VERTEX
  8
0
 10
37614.45022391965
 20
-4904.453145882667
  0
VERTEX
  8
0
 10
37614.02343008464
 20
-4903.118621439146
  0
VERTEX
  8
0
 10
37613.59464185559
 20
-4901.784049026481
  0
VERTEX
  8
0
 10
37613.16396604966
 20
-4900.449431213837
  0
VERTEX
  8
0
 10
37612.73150948405
 20
-4899.11477057038
  0
VERTEX
  8
0
 10
37612.29737897592
 20
-4897.780069665275
  0
VERTEX
  8
0
 10
37611.86168134244
 20
-4896.445331067689
  0
VERTEX
  8
0
 10
37611.4245234008
 20
-4895.110557346786
  0
VERTEX
  8
0
 10
37610.98601196817
 20
-4893.775751071733
  0
VERTEX
  8
0
 10
37610.54625386174
 20
-4892.440914811695
  0
VERTEX
  8
0
 10
37610.10535589867
 20
-4891.106051135836
  0
VERTEX
  8
0
 10
37609.66342489616
 20
-4889.771162613325
  0
VERTEX
  8
0
 10
37609.22056767136
 20
-4888.436251813325
  0
VERTEX
  8
0
 10
37608.77689104146
 20
-4887.101321305002
  0
VERTEX
  8
0
 10
37608.33250182365
 20
-4885.766373657522
  0
VERTEX
  8
0
 10
37607.88750683508
 20
-4884.43141144005
  0
VERTEX
  8
0
 10
37607.44201289295
 20
-4883.096437221753
  0
VERTEX
  8
0
 10
37606.99612681442
 20
-4881.761453571796
  0
VERTEX
  8
0
 10
37606.54995541668
 20
-4880.426463059344
  0
VERTEX
  8
0
 10
37606.10360551692
 20
-4879.091468253562
  0
VERTEX
  8
0
 10
37605.64144721602
 20
-4877.76992125945
  0
VERTEX
  8
0
 10
37605.14905417387
 20
-4876.475570814131
  0
VERTEX
  8
0
 10
37604.66346147188
 20
-4875.180329589778
  0
VERTEX
  8
0
 10
37604.18978637478
 20
-4873.883527274019
  0
VERTEX
  8
0
 10
37603.73314614729
 20
-4872.584493554486
  0
VERTEX
  8
0
 10
37603.29865805413
 20
-4871.282558118808
  0
VERTEX
  8
0
 10
37602.89143936004
 20
-4869.977050654616
  0
VERTEX
  8
0
 10
37602.51660732972
 20
-4868.667300849536
  0
VERTEX
  8
0
 10
37602.17927922792
 20
-4867.352638391204
  0
VERTEX
  8
0
 10
37601.88457231935
 20
-4866.032392967247
  0
VERTEX
  8
0
 10
37601.63760386873
 20
-4864.705894265295
  0
VERTEX
  8
0
 10
37601.4434911408
 20
-4863.372471972978
  0
VERTEX
  8
0
 10
37601.30735140026
 20
-4862.031455777927
  0
VERTEX
  8
0
 10
37601.23199056149
 20
-4860.682478132396
  0
VERTEX
  8
0
 10
37601.20909678744
 20
-4859.32662780695
  0
VERTEX
  8
0
 10
37601.22701962759
 20
-4857.965430898339
  0
VERTEX
  8
0
 10
37601.27410798652
 20
-4856.600413587806
  0
VERTEX
  8
0
 10
37601.33871076873
 20
-4855.233102056586
  0
VERTEX
  8
0
 10
37601.58075723545
 20
-4854.004387053813
  0
VERTEX
  8
0
 10
37602.05554702909
 20
-4852.948784665932
  0
VERTEX
  8
0
 10
37602.61053624425
 20
-4851.934513221103
  0
VERTEX
  8
0
 10
37603.24749566061
 20
-4850.959969972297
  0
VERTEX
  8
0
 10
37603.96819605785
 20
-4850.023552172488
  0
VERTEX
  8
0
 10
37604.77440821563
 20
-4849.12365707465
  0
VERTEX
  8
0
 10
37605.66790291364
 20
-4848.258681931756
  0
VERTEX
  8
0
 10
37606.65045093156
 20
-4847.427023996779
  0
VERTEX
  8
0
 10
37607.72382304906
 20
-4846.627080522694
  0
VERTEX
  8
0
 10
37608.88979004583
 20
-4845.857248762474
  0
VERTEX
  8
0
 10
37610.15012270154
 20
-4845.115925969091
  0
VERTEX
  8
0
 10
37611.50659179586
 20
-4844.40150939552
  0
VERTEX
  8
0
 10
37612.96096810848
 20
-4843.712396294735
  0
VERTEX
  8
0
 10
37614.51502241909
 20
-4843.046983919709
  0
VERTEX
  8
0
 10
37616.17052550733
 20
-4842.403669523414
  0
VERTEX
  8
0
 10
37617.92924815291
 20
-4841.780850358824
  0
VERTEX
  8
0
 10
37619.45048801199
 20
-4841.335206965744
  0
VERTEX
  8
0
 10
37620.77282602269
 20
-4840.994663949176
  0
VERTEX
  8
0
 10
37622.09519160894
 20
-4840.654309561821
  0
VERTEX
  8
0
 10
37623.4176019056
 20
-4840.314261013884
  0
VERTEX
  8
0
 10
37624.7400740475
 20
-4839.974635515571
  0
VERTEX
  8
0
 10
37626.06262516954
 20
-4839.63555027709
  0
VERTEX
  8
0
 10
37627.38527240656
 20
-4839.297122508648
  0
VERTEX
  8
0
 10
37628.7080328934
 20
-4838.95946942045
  0
VERTEX
  8
0
 10
37630.03092376496
 20
-4838.622708222702
  0
VERTEX
  8
0
 10
37631.35396215608
 20
-4838.286956125612
  0
VERTEX
  8
0
 10
37632.67716520163
 20
-4837.952330339385
  0
VERTEX
  8
0
 10
37634.00055003643
 20
-4837.618948074229
  0
VERTEX
  8
0
 10
37635.32413379538
 20
-4837.28692654035
  0
VERTEX
  8
0
 10
37636.64793361334
 20
-4836.956382947955
  0
VERTEX
  8
0
 10
37637.97196662514
 20
-4836.62743450725
  0
VERTEX
  8
0
 10
37639.29624996566
 20
-4836.30019842844
  0
VERTEX
  8
0
 10
37640.62080076977
 20
-4835.974791921733
  0
VERTEX
  8
0
 10
37641.94563617231
 20
-4835.651332197335
  0
VERTEX
  8
0
 10
37643.27077330814
 20
-4835.329936465454
  0
VERTEX
  8
0
 10
37644.59622931213
 20
-4835.010721936294
  0
VERTEX
  8
0
 10
37645.92202131914
 20
-4834.693805820065
  0
VERTEX
  8
0
 10
37647.24816646401
 20
-4834.379305326971
  0
VERTEX
  8
0
 10
37648.57468188162
 20
-4834.067337667218
  0
VERTEX
  8
0
 10
37649.90158470683
 20
-4833.758020051013
  0
VERTEX
  8
0
 10
37651.22889207448
 20
-4833.451469688563
  0
VERTEX
  8
0
 10
37652.55662111945
 20
-4833.147803790074
  0
VERTEX
  8
0
 10
37653.8847889766
 20
-4832.847139565753
  0
VERTEX
  8
0
 10
37655.21341278077
 20
-4832.549594225808
  0
VERTEX
  8
0
 10
37656.54250966684
 20
-4832.255284980442
  0
VERTEX
  8
0
 10
37657.87209676966
 20
-4831.964329039864
  0
VERTEX
  8
0
 10
37659.20219122409
 20
-4831.67684361428
  0
VERTEX
  8
0
 10
37660.53281016498
 20
-4831.392945913895
  0
VERTEX
  8
0
 10
37661.86397072722
 20
-4831.112753148918
  0
VERTEX
  8
0
 10
37663.19569004563
 20
-4830.836382529556
  0
VERTEX
  8
0
 10
37664.5279852551
 20
-4830.563951266011
  0
VERTEX
  8
0
 10
37665.86087349047
 20
-4830.295576568494
  0
VERTEX
  8
0
 10
37667.19437188661
 20
-4830.03137564721
  0
VERTEX
  8
0
 10
37668.52849757838
 20
-4829.771465712363
  0
VERTEX
  8
0
 10
37669.86326770063
 20
-4829.515963974164
  0
VERTEX
  8
0
 10
37671.19869938825
 20
-4829.264987642816
  0
VERTEX
  8
0
 10
37672.53480977605
 20
-4829.018653928528
  0
VERTEX
  8
0
 10
37673.87161599893
 20
-4828.777080041506
  0
VERTEX
  8
0
 10
37675.20913519173
 20
-4828.540383191954
  0
VERTEX
  8
0
 10
37676.54738448931
 20
-4828.30868059008
  0
VERTEX
  8
0
 10
37677.88638102654
 20
-4828.082089446092
  0
VERTEX
  8
0
 10
37679.22614193828
 20
-4827.860726970195
  0
VERTEX
  8
0
 10
37680.56668435937
 20
-4827.644710372596
  0
VERTEX
  8
0
 10
37681.90802542469
 20
-4827.434156863501
  0
VERTEX
  8
0
 10
37683.25018226909
 20
-4827.229183653117
  0
VERTEX
  8
0
 10
37684.59317202744
 20
-4827.029907951651
  0
VERTEX
  8
0
 10
37685.93701183458
 20
-4826.836446969308
  0
VERTEX
  8
0
 10
37687.28171882539
 20
-4826.648917916295
  0
VERTEX
  8
0
 10
37688.62731013473
 20
-4826.467438002819
  0
VERTEX
  8
0
 10
37714.4478510765
 20
-4822.895693840415
  0
VERTEX
  8
0
 10
37729.73442061316
 20
-4820.865535425666
  0
VERTEX
  8
0
 10
37731.49527174717
 20
-4820.743022646016
  0
VERTEX
  8
0
 10
37733.1238704473
 20
-4820.638448065411
  0
VERTEX
  8
0
 10
37734.74685992818
 20
-4820.533976138468
  0
VERTEX
  8
0
 10
37736.364266582
 20
-4820.429636220474
  0
VERTEX
  8
0
 10
37737.976116801
 20
-4820.325457666721
  0
VERTEX
  8
0
 10
37739.58243697738
 20
-4820.221469832495
  0
VERTEX
  8
0
 10
37741.18325350335
 20
-4820.117702073088
  0
VERTEX
  8
0
 10
37742.77859277114
 20
-4820.014183743788
  0
VERTEX
  8
0
 10
37744.36848117294
 20
-4819.910944199882
  0
VERTEX
  8
0
 10
37745.95294510097
 20
-4819.80801279666
  0
VERTEX
  8
0
 10
37747.53201094745
 20
-4819.705418889411
  0
VERTEX
  8
0
 10
37749.10570510459
 20
-4819.603191833425
  0
VERTEX
  8
0
 10
37750.67405396459
 20
-4819.50136098399
  0
VERTEX
  8
0
 10
37752.23708391967
 20
-4819.399955696394
  0
VERTEX
  8
0
 10
37753.79482136206
 20
-4819.299005325928
  0
VERTEX
  8
0
 10
37755.34729268395
 20
-4819.19853922788
  0
VERTEX
  8
0
 10
37756.89452427757
 20
-4819.098586757539
  0
VERTEX
  8
0
 10
37758.43654253511
 20
-4818.999177270194
  0
VERTEX
  8
0
 10
37759.97337384881
 20
-4818.900340121135
  0
VERTEX
  8
0
 10
37761.50504461086
 20
-4818.802104665648
  0
VERTEX
  8
0
 10
37763.03158121348
 20
-4818.704500259026
  0
VERTEX
  8
0
 10
37764.55301004889
 20
-4818.607556256553
  0
VERTEX
  8
0
 10
37766.0693575093
 20
-4818.511302013522
  0
VERTEX
  8
0
 10
37767.58064998691
 20
-4818.415766885221
  0
VERTEX
  8
0
 10
37769.08691387395
 20
-4818.320980226938
  0
VERTEX
  8
0
 10
37770.58817556262
 20
-4818.226971393964
  0
VERTEX
  8
0
 10
37772.08446144513
 20
-4818.133769741587
  0
VERTEX
  8
0
 10
37773.57579791372
 20
-4818.041404625093
  0
VERTEX
  8
0
 10
37775.06221136056
 20
-4817.949905399775
  0
VERTEX
  8
0
 10
37776.54372817791
 20
-4817.859301420922
  0
VERTEX
  8
0
 10
37778.02037475794
 20
-4817.769622043819
  0
VERTEX
  8
0
 10
37779.49217749289
 20
-4817.680896623759
  0
VERTEX
  8
0
 10
37780.95916277496
 20
-4817.593154516028
  0
VERTEX
  8
0
 10
37782.42135699637
 20
-4817.506425075918
  0
VERTEX
  8
0
 10
37783.87878654932
 20
-4817.420737658716
  0
VERTEX
  8
0
 10
37785.33147782604
 20
-4817.33612161971
  0
VERTEX
  8
0
 10
37786.77945721873
 20
-4817.252606314191
  0
VERTEX
  8
0
 10
37788.22275111961
 20
-4817.170221097447
  0
VERTEX
  8
0
 10
37789.66138592089
 20
-4817.088995324768
  0
VERTEX
  8
0
 10
37791.09538801478
 20
-4817.008958351442
  0
VERTEX
  8
0
 10
37792.5247837935
 20
-4816.930139532757
  0
VERTEX
  8
0
 10
37793.94959964926
 20
-4816.852568224004
  0
VERTEX
  8
0
 10
37795.36986197426
 20
-4816.776273780471
  0
VERTEX
  8
0
 10
37796.78559716073
 20
-4816.701285557447
  0
VERTEX
  8
0
 10
37798.19683160086
 20
-4816.62763291022
  0
VERTEX
  8
0
 10
37799.6035916869
 20
-4816.55534519408
  0
VERTEX
  8
0
 10
37801.00590381103
 20
-4816.484451764318
  0
VERTEX
  8
0
 10
37802.40379436548
 20
-4816.414981976219
  0
VERTEX
  8
0
 10
37803.79728974245
 20
-4816.346965185074
  0
VERTEX
  8
0
 10
37805.18641633416
 20
-4816.280430746172
  0
VERTEX
  8
0
 10
37806.57120053282
 20
-4816.215408014802
  0
VERTEX
  8
0
 10
37807.95166873065
 20
-4816.151926346251
  0
VERTEX
  8
0
 10
37809.32784731985
 20
-4816.090015095811
  0
VERTEX
  8
0
 10
37810.69976269265
 20
-4816.029703618771
  0
VERTEX
  8
0
 10
37812.06744124125
 20
-4815.971021270416
  0
VERTEX
  8
0
 10
37813.43090935786
 20
-4815.913997406039
  0
VERTEX
  8
0
 10
37814.7901934347
 20
-4815.858661380927
  0
VERTEX
  8
0
 10
37816.14531986397
 20
-4815.805042550371
  0
VERTEX
  8
0
 10
37817.49631503791
 20
-4815.753170269656
  0
VERTEX
  8
0
 10
37818.8432053487
 20
-4815.703073894075
  0
VERTEX
  8
0
 10
37820.18601718859
 20
-4815.654782778915
  0
VERTEX
  8
0
 10
37821.52477694976
 20
-4815.608326279465
  0
VERTEX
  8
0
 10
37822.85951102443
 20
-4815.563733751013
  0
VERTEX
  8
0
 10
37824.19024580482
 20
-4815.521034548851
  0
VERTEX
  8
0
 10
37825.51700768314
 20
-4815.480258028267
  0
VERTEX
  8
0
 10
37826.8398230516
 20
-4815.441433544548
  0
VERTEX
  8
0
 10
37828.15871830241
 20
-4815.404590452984
  0
VERTEX
  8
0
 10
37829.47371982779
 20
-4815.369758108864
  0
VERTEX
  8
0
 10
37830.78485401995
 20
-4815.336965867476
  0
VERTEX
  8
0
 10
37832.09214727111
 20
-4815.306243084113
  0
VERTEX
  8
0
 10
37833.39562597346
 20
-4815.277619114058
  0
VERTEX
  8
0
 10
37834.69531651925
 20
-4815.251123312604
  0
VERTEX
  8
0
 10
37835.99124530065
 20
-4815.22678503504
  0
VERTEX
  8
0
 10
37846.29400650505
 20
-4815.231783102304
  0
VERTEX
  8
0
 10
37935.76906603685
 20
-4815.296709659691
  0
VERTEX
  8
0
 10
37969.48398631384
 20
-4815.220689407372
  0
VERTEX
  8
0
 10
37970.7789207818
 20
-4815.244449931509
  0
VERTEX
  8
0
 10
37972.07761000699
 20
-4815.270375773355
  0
VERTEX
  8
0
 10
37973.38008038165
 20
-4815.298437577621
  0
VERTEX
  8
0
 10
37974.68635829797
 20
-4815.328605989017
  0
VERTEX
  8
0
 10
37975.99647014818
 20
-4815.360851652255
  0
VERTEX
  8
0
 10
37977.31044232448
 20
-4815.395145212047
  0
VERTEX
  8
0
 10
37978.6283012191
 20
-4815.431457313101
  0
VERTEX
  8
0
 10
37979.95007322424
 20
-4815.46975860013
  0
VERTEX
  8
0
 10
37981.2757847321
 20
-4815.510019717845
  0
VERTEX
  8
0
 10
37982.60546213492
 20
-4815.552211310957
  0
VERTEX
  8
0
 10
37983.9391318249
 20
-4815.596304024179
  0
VERTEX
  8
0
 10
37985.27682019425
 20
-4815.642268502216
  0
VERTEX
  8
0
 10
37986.61855363518
 20
-4815.690075389785
  0
VERTEX
  8
0
 10
37987.96435853991
 20
-4815.739695331596
  0
VERTEX
  8
0
 10
37989.31426130065
 20
-4815.791098972358
  0
VERTEX
  8
0
 10
37990.66828830962
 20
-4815.844256956782
  0
VERTEX
  8
0
 10
37992.02646595902
 20
-4815.899139929581
  0
VERTEX
  8
0
 10
37993.38882064106
 20
-4815.955718535465
  0
VERTEX
  8
0
 10
37994.75537874798
 20
-4816.013963419146
  0
VERTEX
  8
0
 10
37996.12616667197
 20
-4816.073845225333
  0
VERTEX
  8
0
 10
37997.50121080524
 20
-4816.135334598739
  0
VERTEX
  8
0
 10
37998.88053754
 20
-4816.198402184074
  0
VERTEX
  8
0
 10
38000.26417326849
 20
-4816.26301862605
  0
VERTEX
  8
0
 10
38001.65214438289
 20
-4816.329154569376
  0
VERTEX
  8
0
 10
38003.04447727543
 20
-4816.396780658766
  0
VERTEX
  8
0
 10
38004.44119833833
 20
-4816.465867538929
  0
VERTEX
  8
0
 10
38005.84233396378
 20
-4816.536385854576
  0
VERTEX
  8
0
 10
38007.24791054401
 20
-4816.608306250419
  0
VERTEX
  8
0
 10
38008.65795447123
 20
-4816.681599371168
  0
VERTEX
  8
0
 10
38010.07249213765
 20
-4816.756235861535
  0
VERTEX
  8
0
 10
38011.49154993548
 20
-4816.83218636623
  0
VERTEX
  8
0
 10
38012.91515425694
 20
-4816.909421529965
  0
VERTEX
  8
0
 10
38014.34333149423
 20
-4816.987911997451
  0
VERTEX
  8
0
 10
38015.77610803958
 20
-4817.067628413399
  0
VERTEX
  8
0
 10
38017.21351028519
 20
-4817.14854142252
  0
VERTEX
  8
0
 10
38018.65556462327
 20
-4817.230621669524
  0
VERTEX
  8
0
 10
38020.10229744605
 20
-4817.313839799122
  0
VERTEX
  8
0
 10
38021.55373514573
 20
-4817.398166456028
  0
VERTEX
  8
0
 10
38023.00990411452
 20
-4817.48357228495
  0
VERTEX
  8
0
 10
38024.47083074464
 20
-4817.570027930599
  0
VERTEX
  8
0
 10
38025.9365414283
 20
-4817.657504037688
  0
VERTEX
  8
0
 10
38027.40706255772
 20
-4817.745971250928
  0
VERTEX
  8
0
 10
38028.88242052509
 20
-4817.835400215027
  0
VERTEX
  8
0
 10
38030.36264172265
 20
-4817.925761574699
  0
VERTEX
  8
0
 10
38031.84775254259
 20
-4818.017025974656
  0
VERTEX
  8
0
 10
38033.33777937714
 20
-4818.109164059604
  0
VERTEX
  8
0
 10
38034.83274861851
 20
-4818.202146474259
  0
VERTEX
  8
0
 10
38036.3326866589
 20
-4818.295943863331
  0
VERTEX
  8
0
 10
38037.83761989053
 20
-4818.390526871529
  0
VERTEX
  8
0
 10
38039.34757470562
 20
-4818.485866143566
  0
VERTEX
  8
0
 10
38040.86257749638
 20
-4818.581932324151
  0
VERTEX
  8
0
 10
38042.382654655
 20
-4818.678696057998
  0
VERTEX
  8
0
 10
38043.90783257373
 20
-4818.776127989816
  0
VERTEX
  8
0
 10
38045.43813764476
 20
-4818.874198764316
  0
VERTEX
  8
0
 10
38046.97359626031
 20
-4818.972879026211
  0
VERTEX
  8
0
 10
38048.51423481259
 20
-4819.072139420208
  0
VERTEX
  8
0
 10
38050.0600796938
 20
-4819.171950591022
  0
VERTEX
  8
0
 10
38051.61115729618
 20
-4819.272283183363
  0
VERTEX
  8
0
 10
38053.16749401192
 20
-4819.373107841942
  0
VERTEX
  8
0
 10
38054.72911623325
 20
-4819.474395211469
  0
VERTEX
  8
0
 10
38056.29605035236
 20
-4819.576115936657
  0
VERTEX
  8
0
 10
38057.86832276149
 20
-4819.678240662214
  0
VERTEX
  8
0
 10
38059.44595985283
 20
-4819.780740032852
  0
VERTEX
  8
0
 10
38061.0289880186
 20
-4819.883584693286
  0
VERTEX
  8
0
 10
38062.61743365102
 20
-4819.986745288222
  0
VERTEX
  8
0
 10
38064.21132314229
 20
-4820.090192462373
  0
VERTEX
  8
0
 10
38065.81068288464
 20
-4820.193896860451
  0
VERTEX
  8
0
 10
38067.41553927026
 20
-4820.297829127165
  0
VERTEX
  8
0
 10
38069.02591869138
 20
-4820.401959907227
  0
VERTEX
  8
0
 10
38070.6418475402
 20
-4820.506259845349
  0
VERTEX
  8
0
 10
38072.26335220895
 20
-4820.610699586239
  0
VERTEX
  8
0
 10
38073.89045908983
 20
-4820.715249774613
  0
VERTEX
  8
0
 10
38075.52319457505
 20
-4820.819881055178
  0
VERTEX
  8
0
 10
38083.95540557264
 20
-4821.883132818866
  0
VERTEX
  8
0
 10
38116.83395675111
 20
-4826.420286239174
  0
VERTEX
  8
0
 10
38118.17978572528
 20
-4826.60014041736
  0
VERTEX
  8
0
 10
38119.52472583164
 20
-4826.786074854356
  0
VERTEX
  8
0
 10
38120.86879420504
 20
-4826.977972339953
  0
VERTEX
  8
0
 10
38122.21200798033
 20
-4827.175715663946
  0
VERTEX
  8
0
 10
38123.55438429238
 20
-4827.379187616128
  0
VERTEX
  8
0
 10
38124.89594027605
 20
-4827.588270986292
  0
VERTEX
  8
0
 10
38126.2366930662
 20
-4827.802848564232
  0
VERTEX
  8
0
 10
38127.57665979768
 20
-4828.022803139741
  0
VERTEX
  8
0
 10
38128.91585760536
 20
-4828.248017502613
  0
VERTEX
  8
0
 10
38130.25430362409
 20
-4828.478374442641
  0
VERTEX
  8
0
 10
38131.59201498875
 20
-4828.71375674962
  0
VERTEX
  8
0
 10
38132.92900883417
 20
-4828.954047213343
  0
VERTEX
  8
0
 10
38134.26530229524
 20
-4829.199128623602
  0
VERTEX
  8
0
 10
38135.60091250679
 20
-4829.448883770191
  0
VERTEX
  8
0
 10
38136.9358566037
 20
-4829.703195442905
  0
VERTEX
  8
0
 10
38138.27015172083
 20
-4829.961946431536
  0
VERTEX
  8
0
 10
38139.60381499302
 20
-4830.225019525878
  0
VERTEX
  8
0
 10
38140.93686355514
 20
-4830.492297515724
  0
VERTEX
  8
0
 10
38142.26931454206
 20
-4830.763663190868
  0
VERTEX
  8
0
 10
38143.60118508864
 20
-4831.038999341104
  0
VERTEX
  8
0
 10
38144.93249232972
 20
-4831.318188756224
  0
VERTEX
  8
0
 10
38146.26325340018
 20
-4831.601114226023
  0
VERTEX
  8
0
 10
38147.59348543486
 20
-4831.887658540294
  0
VERTEX
  8
0
 10
38148.92320556863
 20
-4832.177704488831
  0
VERTEX
  8
0
 10
38150.25243093636
 20
-4832.471134861426
  0
VERTEX
  8
0
 10
38151.5811786729
 20
-4832.767832447874
  0
VERTEX
  8
0
 10
38152.90946591309
 20
-4833.067680037969
  0
SEQEND
  8
0
  0
POLYLINE
  8
0
 66
     1
 70
     1
  0
VERTEX
  8
0
 10
38152.90946082312
 20
-4771.713703812419
  0
VERTEX
  8
0
 10
38152.90946082312
 20
-5521.840882732437
  0
SEQEND
  8
0
  0
LINE
  8
0
 10
38672.90942643632
 20
-5521.841225497808
 11
38672.90942643632
 21
-4771.713703812419
  0
POLYLINE
  8
0
 66
     1
  0
VERTEX
  8
0
 10
38672.90940603304
 20
-4833.067680037969
  0
VERTEX
  8
0
 10
38669.48420079532
 20
-4832.585299577458
  0
VERTEX
  8
0
 10
38666.05897606483
 20
-4832.103215960614
  0
VERTEX
  8
0
 10
38662.63371234876
 20
-4831.621726031107
  0
VERTEX
  8
0
 10
38659.20839015435
 20
-4831.141126632602
  0
VERTEX
  8
0
 10
38655.78298998879
 20
-4830.661714608769
  0
VERTEX
  8
0
 10
38652.35749235933
 20
-4830.183786803275
  0
VERTEX
  8
0
 10
38648.93187777315
 20
-4829.707640059787
  0
VERTEX
  8
0
 10
38645.50612673748
 20
-4829.233571221974
  0
VERTEX
  8
0
 10
38642.08021975954
 20
-4828.761877133502
  0
VERTEX
  8
0
 10
38638.65413734654
 20
-4828.292854638042
  0
VERTEX
  8
0
 10
38635.22786000571
 20
-4827.826800579258
  0
VERTEX
  8
0
 10
38631.80136824425
 20
-4827.364011800821
  0
VERTEX
  8
0
 10
38628.37464256938
 20
-4826.904785146397
  0
VERTEX
  8
0
 10
38624.94766348832
 20
-4826.449417459653
  0
VERTEX
  8
0
 10
38621.52041150829
 20
-4825.998205584258
  0
VERTEX
  8
0
 10
38618.09286713648
 20
-4825.55144636388
  0
VERTEX
  8
0
 10
38614.66501088014
 20
-4825.109436642187
  0
VERTEX
  8
0
 10
38611.23682324647
 20
-4824.672473262846
  0
VERTEX
  8
0
 10
38607.80828474268
 20
-4824.240853069524
  0
VERTEX
  8
0
 10
38604.37937587599
 20
-4823.81487290589
  0
VERTEX
  8
0
 10
38600.95007715363
 20
-4823.394829615612
  0
VERTEX
  8
0
 10
38597.5203690828
 20
-4822.981020042358
  0
VERTEX
  8
0
 10
38594.09023217072
 20
-4822.573741029794
  0
VERTEX
  8
0
 10
38590.65964692461
 20
-4822.173289421589
  0
VERTEX
  8
0
 10
38587.22859385167
 20
-4821.779962061411
  0
VERTEX
  8
0
 10
38583.79705345914
 20
-4821.394055792927
  0
VERTEX
  8
0
 10
38580.36500625422
 20
-4821.015867459805
  0
VERTEX
  8
0
 10
38576.93243274414
 20
-4820.645693905714
  0
VERTEX
  8
0
 10
38573.4993134361
 20
-4820.28383197432
  0
VERTEX
  8
0
 10
38570.06562883732
 20
-4819.930578509292
  0
VERTEX
  8
0
 10
38566.63135945502
 20
-4819.586230354296
  0
VERTEX
  8
0
 10
38563.19648579641
 20
-4819.251084353003
  0
VERTEX
  8
0
 10
38559.76098836871
 20
-4818.925437349077
  0
VERTEX
  8
0
 10
38556.32484767914
 20
-4818.60958618619
  0
VERTEX
  8
0
 10
38552.88804423492
 20
-4818.303827708005
  0
VERTEX
  8
0
 10
38549.45055854324
 20
-4818.008458758192
  0
VERTEX
  8
0
 10
38546.01237111135
 20
-4817.72377618042
  0
VERTEX
  8
0
 10
38542.57346244644
 20
-4817.450076818355
  0
VERTEX
  8
0
 10
38539.13381305574
 20
-4817.187657515667
  0
VERTEX
  8
0
 10
38535.69340344646
 20
-4816.936815116022
  0
VERTEX
  8
0
 10
38532.25221412582
 20
-4816.697846463087
  0
VERTEX
  8
0
 10
38528.81022560102
 20
-4816.471048400531
  0
VERTEX
  8
0
 10
38525.3674183793
 20
-4816.256717772022
  0
VERTEX
  8
0
 10
38521.92377296787
 20
-4816.055151421227
  0
VERTEX
  8
0
 10
38518.47926987394
 20
-4815.866646191815
  0
VERTEX
  8
0
 10
38515.03388960473
 20
-4815.691498927452
  0
VERTEX
  8
0
 10
38511.58761266744
 20
-4815.530006471806
  0
VERTEX
  8
0
 10
38412.90943597308
 20
-4815.423747935408
  0
VERTEX
  8
0
 10
38314.23125927869
 20
-4815.530006471806
  0
VERTEX
  8
0
 10
38310.7849823414
 20
-4815.691498927452
  0
VERTEX
  8
0
 10
38307.33960207219
 20
-4815.866646191815
  0
VERTEX
  8
0
 10
38303.89509897826
 20
-4816.055151421227
  0
VERTEX
  8
0
 10
38300.45145356683
 20
-4816.256717772022
  0
VERTEX
  8
0
 10
38297.00864634511
 20
-4816.471048400531
  0
VERTEX
  8
0
 10
38293.56665782032
 20
-4816.697846463087
  0
VERTEX
  8
0
 10
38290.12546849967
 20
-4816.936815116022
  0
VERTEX
  8
0
 10
38286.68505889039
 20
-4817.187657515667
  0
VERTEX
  8
0
 10
38283.24540949969
 20
-4817.450076818355
  0
VERTEX
  8
0
 10
38279.80650083478
 20
-4817.72377618042
  0
VERTEX
  8
0
 10
38276.36831340289
 20
-4818.008458758192
  0
VERTEX
  8
0
 10
38272.93082771121
 20
-4818.303827708005
  0
VERTEX
  8
0
 10
38269.49402426699
 20
-4818.60958618619
  0
VERTEX
  8
0
 10
38266.05788357742
 20
-4818.925437349077
  0
VERTEX
  8
0
 10
38262.62238614972
 20
-4819.251084353003
  0
VERTEX
  8
0
 10
38259.18751249112
 20
-4819.586230354296
  0
VERTEX
  8
0
 10
38255.75324310881
 20
-4819.930578509292
  0
VERTEX
  8
0
 10
38252.31955851004
 20
-4820.28383197432
  0
VERTEX
  8
0
 10
38248.88643920199
 20
-4820.645693905714
  0
VERTEX
  8
0
 10
38245.45386569191
 20
-4821.015867459805
  0
VERTEX
  8
0
 10
38242.02181848699
 20
-4821.394055792927
  0
VERTEX
  8
0
 10
38238.59027809446
 20
-4821.779962061411
  0
VERTEX
  8
0
 10
38235.15922502153
 20
-4822.173289421589
  0
VERTEX
  8
0
 10
38231.72863977541
 20
-4822.573741029794
  0
VERTEX
  8
0
 10
38228.29850286333
 20
-4822.981020042358
  0
VERTEX
  8
0
 10
38224.8687947925
 20
-4823.394829615612
  0
VERTEX
  8
0
 10
38221.43949607014
 20
-4823.81487290589
  0
VERTEX
  8
0
 10
38218.01058720345
 20
-4824.240853069524
  0
VERTEX
  8
0
 10
38214.58204869967
 20
-4824.672473262846
  0
VERTEX
  8
0
 10
38211.15386106599
 20
-4825.109436642187
  0
VERTEX
  8
0
 10
38207.72600480965
 20
-4825.55144636388
  0
VERTEX
  8
0
 10
38204.29846043784
 20
-4825.998205584258
  0
VERTEX
  8
0
 10
38200.87120845781
 20
-4826.449417459652
  0
VERTEX
  8
0
 10
38197.44422937675
 20
-4826.904785146397
  0
VERTEX
  8
0
 10
38194.01750370189
 20
-4827.364011800821
  0
VERTEX
  8
0
 10
38190.59101194042
 20
-4827.826800579258
  0
VERTEX
  8
0
 10
38187.16473459959
 20
-4828.292854638042
  0
VERTEX
  8
0
 10
38183.73865218659
 20
-4828.761877133502
  0
VERTEX
  8
0
 10
38180.31274520866
 20
-4829.233571221974
  0
VERTEX
  8
0
 10
38176.88699417299
 20
-4829.707640059787
  0
VERTEX
  8
0
 10
38173.46137958681
 20
-4830.183786803274
  0
VERTEX
  8
0
 10
38170.03588195734
 20
-4830.661714608769
  0
VERTEX
  8
0
 10
38166.61048179178
 20
-4831.141126632602
  0
VERTEX
  8
0
 10
38163.18515959737
 20
-4831.621726031107
  0
VERTEX
  8
0
 10
38159.7598958813
 20
-4832.103215960614
  0
VERTEX
  8
0
 10
38156.33467115081
 20
-4832.585299577458
  0
VERTEX
  8
0
 10
38152.90946591309
 20
-4833.067680037969
  0
SEQEND
  8
0
  0
POLYLINE
  8
0
 66
     1
  0
VERTEX
  8
0
 10
38152.90940688854
 20
-4990.676738409543
  0
VERTEX
  8
0
 10
38154.02196633001
 20
-4991.684746630409
  0
VERTEX
  8
0
 10
38155.15127549024
 20
-4992.669163818469
  0
VERTEX
  8
0
 10
38156.29702617
 20
-4993.630424054908
  0
VERTEX
  8
0
 10
38157.45891017008
 20
-4994.568961420909
  0
VERTEX
  8
0
 10
38158.63661929127
 20
-4995.485209997659
  0
VERTEX
  8
0
 10
38159.82984533436
 20
-4996.379603866341
  0
VERTEX
  8
0
 10
38161.03828010013
 20
-4997.252577108143
  0
VERTEX
  8
0
 10
38162.26161538936
 20
-4998.104563804247
  0
VERTEX
  8
0
 10
38163.49954300285
 20
-4998.935998035839
  0
VERTEX
  8
0
 10
38164.75175474138
 20
-4999.747313884105
  0
VERTEX
  8
0
 10
38166.01794240573
 20
-5000.53894543023
  0
VERTEX
  8
0
 10
38167.29779779669
 20
-5001.311326755398
  0
VERTEX
  8
0
 10
38168.59101271506
 20
-5002.064891940795
  0
VERTEX
  8
0
 10
38169.89727896161
 20
-5002.800075067605
  0
VERTEX
  8
0
 10
38171.21628833712
 20
-5003.517310217014
  0
VERTEX
  8
0
 10
38172.5477326424
 20
-5004.217031470206
  0
VERTEX
  8
0
 10
38173.89130367821
 20
-5004.899672908366
  0
VERTEX
  8
0
 10
38175.24669324536
 20
-5005.565668612681
  0
VERTEX
  8
0
 10
38176.61359314462
 20
-5006.215452664333
  0
VERTEX
  8
0
 10
38177.99169517678
 20
-5006.849459144511
  0
VERTEX
  8
0
 10
38179.38069114264
 20
-5007.468122134397
  0
VERTEX
  8
0
 10
38180.78027284296
 20
-5008.071875715177
  0
VERTEX
  8
0
 10
38182.19013207855
 20
-5008.661153968036
  0
VERTEX
  8
0
 10
38183.60996065017
 20
-5009.236390974158
  0
VERTEX
  8
0
 10
38185.03945035864
 20
-5009.79802081473
  0
VERTEX
  8
0
 10
38186.47829300472
 20
-5010.346477570935
  0
VERTEX
  8
0
 10
38187.92618038921
 20
-5010.882195323959
  0
VERTEX
  8
0
 10
38189.38280431289
 20
-5011.405608154987
  0
VERTEX
  8
0
 10
38190.84785657654
 20
-5011.917150145206
  0
VERTEX
  8
0
 10
38192.32102898096
 20
-5012.417255375796
  0
VERTEX
  8
0
 10
38193.80201332693
 20
-5012.906357927947
  0
VERTEX
  8
0
 10
38195.29050141523
 20
-5013.384891882843
  0
VERTEX
  8
0
 10
38196.78618504666
 20
-5013.853291321666
  0
VERTEX
  8
0
 10
38198.28875602199
 20
-5014.311990325605
  0
VERTEX
  8
0
 10
38199.79790614202
 20
-5014.761422975843
  0
VERTEX
  8
0
 10
38201.31332720753
 20
-5015.202023353564
  0
VERTEX
  8
0
 10
38202.83471101931
 20
-5015.634225539956
  0
VERTEX
  8
0
 10
38204.36174937813
 20
-5016.058463616201
  0
VERTEX
  8
0
 10
38205.8941340848
 20
-5016.475171663487
  0
VERTEX
  8
0
 10
38207.43155694009
 20
-5016.884783762996
  0
VERTEX
  8
0
 10
38208.97370974479
 20
-5017.287733995916
  0
VERTEX
  8
0
 10
38210.5202842997
 20
-5017.68445644343
  0
VERTEX
  8
0
 10
38212.07097240559
 20
-5018.075385186722
  0
VERTEX
  8
0
 10
38213.62546586324
 20
-5018.460954306981
  0
VERTEX
  8
0
 10
38215.18345647345
 20
-5018.841597885388
  0
VERTEX
  8
0
 10
38216.74463603699
 20
-5019.21775000313
  0
VERTEX
  8
0
 10
38218.30869635469
 20
-5019.589844741393
  0
VERTEX
  8
0
 10
38219.87532922728
 20
-5019.958316181359
  0
VERTEX
  8
0
 10
38221.44422645558
 20
-5020.323598404216
  0
VERTEX
  8
0
 10
38223.01507984036
 20
-5020.686125491147
  0
VERTEX
  8
0
 10
38224.58758118242
 20
-5021.046331523338
  0
VERTEX
  8
0
 10
38226.16142228255
 20
-5021.404650581975
  0
VERTEX
  8
0
 10
38227.73629494151
 20
-5021.76151674824
  0
VERTEX
  8
0
 10
38229.3118909601
 20
-5022.117364103322
  0
VERTEX
  8
0
 10
38230.88790213912
 20
-5022.472626728401
  0
VERTEX
  8
0
 10
38412.90943597307
 20
-5021.841222201911
  0
VERTEX
  8
0
 10
38594.93096980701
 20
-5022.472626728401
  0
VERTEX
  8
0
 10
38596.50698098603
 20
-5022.117364103322
  0
VERTEX
  8
0
 10
38598.08257700462
 20
-5021.76151674824
  0
VERTEX
  8
0
 10
38599.65744966358
 20
-5021.404650581975
  0
VERTEX
  8
0
 10
38601.23129076371
 20
-5021.046331523338
  0
VERTEX
  8
0
 10
38602.80379210577
 20
-5020.686125491147
  0
VERTEX
  8
0
 10
38604.37464549055
 20
-5020.323598404216
  0
VERTEX
  8
0
 10
38605.94354271885
 20
-5019.958316181359
  0
VERTEX
  8
0
 10
38607.51017559144
 20
-5019.589844741393
  0
VERTEX
  8
0
 10
38609.07423590914
 20
-5019.21775000313
  0
VERTEX
  8
0
 10
38610.63541547269
 20
-5018.841597885388
  0
VERTEX
  8
0
 10
38612.19340608289
 20
-5018.460954306981
  0
VERTEX
  8
0
 10
38613.74789954055
 20
-5018.075385186722
  0
VERTEX
  8
0
 10
38615.29858764643
 20
-5017.68445644343
  0
VERTEX
  8
0
 10
38616.84516220135
 20
-5017.287733995916
  0
VERTEX
  8
0
 10
38618.38731500605
 20
-5016.884783762996
  0
VERTEX
  8
0
 10
38619.92473786134
 20
-5016.475171663487
  0
VERTEX
  8
0
 10
38621.457122568
 20
-5016.058463616201
  0
VERTEX
  8
0
 10
38622.98416092683
 20
-5015.634225539956
  0
VERTEX
  8
0
 10
38624.5055447386
 20
-5015.202023353564
  0
VERTEX
  8
0
 10
38626.02096580411
 20
-5014.761422975843
  0
VERTEX
  8
0
 10
38627.53011592414
 20
-5014.311990325605
  0
VERTEX
  8
0
 10
38629.03268689947
 20
-5013.853291321666
  0
VERTEX
  8
0
 10
38630.5283705309
 20
-5013.384891882843
  0
VERTEX
  8
0
 10
38632.0168586192
 20
-5012.906357927947
  0
VERTEX
  8
0
 10
38633.49784296517
 20
-5012.417255375796
  0
VERTEX
  8
0
 10
38634.97101536959
 20
-5011.917150145206
  0
VERTEX
  8
0
 10
38636.43606763324
 20
-5011.405608154987
  0
VERTEX
  8
0
 10
38637.89269155692
 20
-5010.882195323959
  0
VERTEX
  8
0
 10
38639.34057894141
 20
-5010.346477570935
  0
VERTEX
  8
0
 10
38640.7794215875
 20
-5009.79802081473
  0
VERTEX
  8
0
 10
38642.20891129596
 20
-5009.236390974158
  0
VERTEX
  8
0
 10
38643.62873986758
 20
-5008.661153968035
  0
VERTEX
  8
0
 10
38645.03859910317
 20
-5008.071875715177
  0
VERTEX
  8
0
 10
38646.4381808035
 20
-5007.468122134397
  0
VERTEX
  8
0
 10
38647.82717676935
 20
-5006.849459144511
  0
VERTEX
  8
0
 10
38649.20527880151
 20
-5006.215452664333
  0
VERTEX
  8
0
 10
38650.57217870077
 20
-5005.565668612681
  0
VERTEX
  8
0
 10
38651.92756826792
 20
-5004.899672908366
  0
VERTEX
  8
0
 10
38653.27113930374
 20
-5004.217031470206
  0
VERTEX
  8
0
 10
38654.60258360901
 20
-5003.517310217013
  0
VERTEX
  8
0
 10
38655.92159298452
 20
-5002.800075067605
  0
VERTEX
  8
0
 10
38657.22785923108
 20
-5002.064891940795
  0
VERTEX
  8
0
 10
38658.52107414944
 20
-5001.311326755398
  0
VERTEX
  8
0
 10
38659.8009295404
 20
-5000.53894543023
  0
VERTEX
  8
0
 10
38661.06711720475
 20
-4999.747313884105
  0
VERTEX
  8
0
 10
38662.31932894328
 20
-4998.935998035839
  0
VERTEX
  8
0
 10
38663.55725655677
 20
-4998.104563804247
  0
VERTEX
  8
0
 10
38664.78059184601
 20
-4997.252577108142
  0
VERTEX
  8
0
 10
38665.98902661177
 20
-4996.379603866341
  0
VERTEX
  8
0
 10
38667.18225265486
 20
-4995.485209997659
  0
VERTEX
  8
0
 10
38668.35996177606
 20
-4994.568961420909
  0
VERTEX
  8
0
 10
38669.52184577614
 20
-4993.630424054907
  0
VERTEX
  8
0
 10
38670.6675964559
 20
-4992.669163818469
  0
VERTEX
  8
0
 10
38671.79690561612
 20
-4991.684746630409
  0
VERTEX
  8
0
 10
38672.9094650576
 20
-4990.676738409544
  0
SEQEND
  8
0
  0
POLYLINE
  8
0
 66
     1
  0
VERTEX
  8
0
 10
39192.90952657213
 20
-5005.766540706744
  0
VERTEX
  8
0
 10
39192.90952657213
 20
-5491.726838767211
 42
0.413965955855
  0
VERTEX
  8
0
 10
39207.90952082122
 20
-5506.713703812423
  0
VERTEX
  8
0
 10
39308.26195899213
 20
-5506.713704147699
 42
0.419950095054
  0
VERTEX
  8
0
 10
39323.26190446367
 20
-5491.713704482975
  0
VERTEX
  8
0
 10
39323.26190446367
 20
-4781.713694275678
 42
0.43772166494
  0
VERTEX
  8
0
 10
39313.26191400042
 20
-4771.713703812419
  0
VERTEX
  8
0
 10
39202.90952082122
 20
-4771.713703812419
 42
0.414154868071
  0
VERTEX
  8
0
 10
39192.90952657213
 20
-4781.656309320801
  0
VERTEX
  8
0
 10
39192.90952657213
 20
-4837.894331147737
  0
SEQEND
  8
0
  0
POLYLINE
  8
0
 66
     1
  0
VERTEX
  8
0
 10
38672.90930976727
 20
-4990.676881866005
  0
VERTEX
  8
0
 10
38673.70262188895
 20
-4991.572279330155
  0
VERTEX
  8
0
 10
38674.51952047485
 20
-4992.448969261181
  0
VERTEX
  8
0
 10
38675.35959847118
 20
-4993.307274512556
  0
VERTEX
  8
0
 10
38676.22244882417
 20
-4994.147517937759
  0
VERTEX
  8
0
 10
38677.10766448005
 20
-4994.970022390264
  0
VERTEX
  8
0
 10
38678.01483838505
 20
-4995.775110723545
  0
VERTEX
  8
0
 10
38678.94356348539
 20
-4996.563105791081
  0
VERTEX
  8
0
 10
38679.8934327273
 20
-4997.334330446346
  0
VERTEX
  8
0
 10
38680.86403905701
 20
-4998.089107542816
  0
VERTEX
  8
0
 10
38681.85497542074
 20
-4998.827759933965
  0
VERTEX
  8
0
 10
38682.86583476471
 20
-4999.55061047327
  0
VERTEX
  8
0
 10
38683.89621003518
 20
-5000.257982014208
  0
VERTEX
  8
0
 10
38684.94569417834
 20
-5000.950197410251
  0
VERTEX
  8
0
 10
38686.01388014042
 20
-5001.627579514879
  0
VERTEX
  8
0
 10
38687.10036086766
 20
-5002.290451181563
  0
VERTEX
  8
0
 10
38688.20472930629
 20
-5002.939135263782
  0
VERTEX
  8
0
 10
38689.32657840254
 20
-5003.573954615011
  0
VERTEX
  8
0
 10
38690.4655011026
 20
-5004.195232088723
  0
VERTEX
  8
0
 10
38691.62109035275
 20
-5004.803290538397
  0
VERTEX
  8
0
 10
38692.79293909918
 20
-5005.398452817507
  0
VERTEX
  8
0
 10
38693.98064028812
 20
-5005.981041779528
  0
VERTEX
  8
0
 10
38695.18378686581
 20
-5006.551380277937
  0
VERTEX
  8
0
 10
38696.40197177847
 20
-5007.109791166209
  0
VERTEX
  8
0
 10
38697.63478797233
 20
-5007.656597297821
  0
VERTEX
  8
0
 10
38698.88182839361
 20
-5008.192121526246
  0
VERTEX
  8
0
 10
38700.14268598853
 20
-5008.716686704961
  0
VERTEX
  8
0
 10
38701.41695370334
 20
-5009.230615687441
  0
VERTEX
  8
0
 10
38702.70422448426
 20
-5009.734231327163
  0
VERTEX
  8
0
 10
38704.0040912775
 20
-5010.227856477601
  0
VERTEX
  8
0
 10
38705.3161470293
 20
-5010.711813992231
  0
VERTEX
  8
0
 10
38706.63998468588
 20
-5011.186426724529
  0
VERTEX
  8
0
 10
38707.97519719347
 20
-5011.652017527971
  0
VERTEX
  8
0
 10
38709.32137749831
 20
-5012.108909256031
  0
VERTEX
  8
0
 10
38710.67811854661
 20
-5012.557424762187
  0
VERTEX
  8
0
 10
38712.04501328459
 20
-5012.997886899911
  0
VERTEX
  8
0
 10
38713.4216546585
 20
-5013.430618522683
  0
VERTEX
  8
0
 10
38714.80763561455
 20
-5013.855942483976
  0
VERTEX
  8
0
 10
38716.20254909897
 20
-5014.274181637265
  0
VERTEX
  8
0
 10
38717.60598805799
 20
-5014.685658836028
  0
VERTEX
  8
0
 10
38719.01754543783
 20
-5015.090696933739
  0
VERTEX
  8
0
 10
38720.43681418473
 20
-5015.489618783873
  0
VERTEX
  8
0
 10
38721.8633872449
 20
-5015.882747239908
  0
VERTEX
  8
0
 10
38723.29685756458
 20
-5016.270405155316
  0
VERTEX
  8
0
 10
38724.73681808998
 20
-5016.652915383576
  0
VERTEX
  8
0
 10
38726.18286176735
 20
-5017.030600778163
  0
VERTEX
  8
0
 10
38727.63458154291
 20
-5017.403784192551
  0
VERTEX
  8
0
 10
38729.09157036287
 20
-5017.772788480216
  0
VERTEX
  8
0
 10
38730.55342117348
 20
-5018.137936494634
  0
VERTEX
  8
0
 10
38732.01972692094
 20
-5018.49955108928
  0
VERTEX
  8
0
 10
38733.49008055151
 20
-5018.857955117632
  0
VERTEX
  8
0
 10
38734.96407501138
 20
-5019.213471433162
  0
VERTEX
  8
0
 10
38736.4413032468
 20
-5019.566422889349
  0
VERTEX
  8
0
 10
38737.921358204
 20
-5019.917132339667
  0
VERTEX
  8
0
 10
38739.40383282919
 20
-5020.265922637592
  0
VERTEX
  8
0
 10
38740.88832006862
 20
-5020.613116636598
  0
VERTEX
  8
0
 10
38742.37441286848
 20
-5020.959037190162
  0
VERTEX
  8
0
 10
38743.86170417504
 20
-5021.304007151761
  0
VERTEX
  8
0
 10
38745.34978693449
 20
-5021.648349374867
  0
VERTEX
  8
0
 10
38765.6731534603
 20
-5021.973241774819
  0
VERTEX
  8
0
 10
39061.3161355683
 20
-5022.308568264199
  0
VERTEX
  8
0
 10
39189.10947544968
 20
-5013.623244399869
  0
VERTEX
  8
0
 10
39192.89413712165
 20
-5005.541194032001
  0
VERTEX
  8
0
 10
39192.8568099486
 20
-5004.217832621987
  0
VERTEX
  8
0
 10
39192.82959527507
 20
-5002.894227986246
  0
VERTEX
  8
0
 10
39192.81238628388
 20
-5001.570382693938
  0
VERTEX
  8
0
 10
39192.80507615784
 20
-5000.246299314233
  0
VERTEX
  8
0
 10
39192.80755807978
 20
-4998.921980416294
  0
VERTEX
  8
0
 10
39192.81972523253
 20
-4997.597428569287
  0
VERTEX
  8
0
 10
39192.84147079891
 20
-4996.272646342381
  0
VERTEX
  8
0
 10
39192.87268796172
 20
-4994.947636304736
  0
VERTEX
  8
0
 10
39192.91326990382
 20
-4993.622401025521
  0
VERTEX
  8
0
 10
39192.96310980801
 20
-4992.296943073901
  0
VERTEX
  8
0
 10
39193.02210085712
 20
-4990.971265019041
  0
VERTEX
  8
0
 10
39193.09013623397
 20
-4989.645369430109
  0
VERTEX
  8
0
 10
39193.16710912138
 20
-4988.319258876268
  0
VERTEX
  8
0
 10
39193.25291270218
 20
-4986.992935926683
  0
VERTEX
  8
0
 10
39193.34744015919
 20
-4985.666403150523
  0
VERTEX
  8
0
 10
39193.45058467524
 20
-4984.339663116951
  0
VERTEX
  8
0
 10
39193.56223943313
 20
-4983.012718395134
  0
VERTEX
  8
0
 10
39193.6822976157
 20
-4981.685571554235
  0
VERTEX
  8
0
 10
39193.81065240577
 20
-4980.358225163422
  0
VERTEX
  8
0
 10
39193.94719698617
 20
-4979.03068179186
  0
VERTEX
  8
0
 10
39194.09182453971
 20
-4977.702944008714
  0
VERTEX
  8
0
 10
39194.24442824922
 20
-4976.37501438315
  0
VERTEX
  8
0
 10
39194.40490129753
 20
-4975.046895484335
  0
VERTEX
  8
0
 10
39194.57313686745
 20
-4973.718589881432
  0
VERTEX
  8
0
 10
39194.7490281418
 20
-4972.39010014361
  0
VERTEX
  8
0
 10
39194.93246830342
 20
-4971.061428840031
  0
VERTEX
  8
0
 10
39195.12335053513
 20
-4969.732578539862
  0
VERTEX
  8
0
 10
39195.32156801973
 20
-4968.40355181227
  0
VERTEX
  8
0
 10
39195.52701394007
 20
-4967.074351226418
  0
VERTEX
  8
0
 10
39195.73958147896
 20
-4965.744979351474
  0
VERTEX
  8
0
 10
39195.95916381922
 20
-4964.415438756602
  0
VERTEX
  8
0
 10
39196.18565414368
 20
-4963.085732010968
  0
VERTEX
  8
0
 10
39196.41894563516
 20
-4961.755861683739
  0
VERTEX
  8
0
 10
39196.65893147649
 20
-4960.425830344078
  0
VERTEX
  8
0
 10
39196.90550485048
 20
-4959.095640561153
  0
VERTEX
  8
0
 10
39197.15855893995
 20
-4957.765294904128
  0
VERTEX
  8
0
 10
39197.41798692775
 20
-4956.434795942169
  0
VERTEX
  8
0
 10
39197.68368199668
 20
-4955.104146244442
  0
VERTEX
  8
0
 10
39197.95553732956
 20
-4953.773348380112
  0
VERTEX
  8
0
 10
39198.23344610923
 20
-4952.442404918345
  0
VERTEX
  8
0
 10
39198.51730151849
 20
-4951.111318428307
  0
VERTEX
  8
0
 10
39198.80699674019
 20
-4949.780091479163
  0
VERTEX
  8
0
 10
39199.10242495713
 20
-4948.448726640079
  0
VERTEX
  8
0
 10
39199.40347935215
 20
-4947.11722648022
  0
VERTEX
  8
0
 10
39199.71005310806
 20
-4945.785593568752
  0
VERTEX
  8
0
 10
39200.02203940768
 20
-4944.45383047484
  0
VERTEX
  8
0
 10
39200.33933143385
 20
-4943.121939767651
  0
VERTEX
  8
0
 10
39200.66182236938
 20
-4941.78992401635
  0
VERTEX
  8
0
 10
39200.9894053971
 20
-4940.457785790101
  0
VERTEX
  8
0
 10
39201.32197369982
 20
-4939.125527658072
  0
VERTEX
  8
0
 10
39201.65942046038
 20
-4937.793152189428
  0
VERTEX
  8
0
 10
39202.00163886159
 20
-4936.460661953333
  0
VERTEX
  8
0
 10
39202.34852208629
 20
-4935.128059518955
  0
VERTEX
  8
0
 10
39202.69996331727
 20
-4933.795347455457
  0
VERTEX
  8
0
 10
39203.05585573739
 20
-4932.462528332007
  0
VERTEX
  8
0
 10
39203.41609252945
 20
-4931.129604717768
  0
VERTEX
  8
0
 10
39203.78056687627
 20
-4929.796579181909
  0
VERTEX
  8
0
 10
39204.1491719607
 20
-4928.463454293593
  0
VERTEX
  8
0
 10
39204.52180096553
 20
-4927.130232621986
  0
VERTEX
  8
0
 10
39204.8983470736
 20
-4925.796916736254
  0
VERTEX
  8
0
 10
39205.27870346773
 20
-4924.463509205563
  0
VERTEX
  8
0
 10
39205.66276333074
 20
-4923.130012599078
  0
VERTEX
  8
0
 10
39206.05041984547
 20
-4921.796429485965
  0
VERTEX
  8
0
 10
39206.44156619472
 20
-4920.462762435389
  0
VERTEX
  8
0
 10
39206.83609556132
 20
-4919.129014016516
  0
VERTEX
  8
0
 10
39207.2339011281
 20
-4917.795186798511
  0
VERTEX
  8
0
 10
39207.63487607787
 20
-4916.461283350541
  0
VERTEX
  8
0
 10
39208.03891359347
 20
-4915.12730624177
  0
VERTEX
  8
0
 10
39208.4459068577
 20
-4913.793258041364
  0
VERTEX
  8
0
 10
39208.85574905341
 20
-4912.45914131849
  0
VERTEX
  8
0
 10
39209.26833336339
 20
-4911.124958642313
  0
VERTEX
  8
0
 10
39209.68355297051
 20
-4909.790712581997
  0
VERTEX
  8
0
 10
39210.10130105754
 20
-4908.456405706708
  0
VERTEX
  8
0
 10
39210.52147080733
 20
-4907.122040585614
  0
VERTEX
  8
0
 10
39210.9439554027
 20
-4905.787619787879
  0
VERTEX
  8
0
 10
39211.36864802648
 20
-4904.453145882667
  0
VERTEX
  8
0
 10
39211.79544186149
 20
-4903.118621439146
  0
VERTEX
  8
0
 10
39212.22423009054
 20
-4901.784049026481
  0
VERTEX
  8
0
 10
39212.65490589647
 20
-4900.449431213837
  0
VERTEX
  8
0
 10
39213.08736246208
 20
-4899.11477057038
  0
VERTEX
  8
0
 10
39213.52149297021
 20
-4897.780069665275
  0
VERTEX
  8
0
 10
39213.95719060369
 20
-4896.445331067689
  0
VERTEX
  8
0
 10
39214.39434854533
 20
-4895.110557346786
  0
VERTEX
  8
0
 10
39214.83285997796
 20
-4893.775751071733
  0
VERTEX
  8
0
 10
39215.27261808439
 20
-4892.440914811695
  0
VERTEX
  8
0
 10
39215.71351604746
 20
-4891.106051135836
  0
VERTEX
  8
0
 10
39216.15544704998
 20
-4889.771162613325
  0
VERTEX
  8
0
 10
39216.59830427477
 20
-4888.436251813325
  0
VERTEX
  8
0
 10
39217.04198090467
 20
-4887.101321305002
  0
VERTEX
  8
0
 10
39217.48637012248
 20
-4885.766373657522
  0
VERTEX
  8
0
 10
39217.93136511106
 20
-4884.43141144005
  0
VERTEX
  8
0
 10
39218.37685905318
 20
-4883.096437221753
  0
VERTEX
  8
0
 10
39218.82274513171
 20
-4881.761453571796
  0
VERTEX
  8
0
 10
39219.26891652945
 20
-4880.426463059344
  0
VERTEX
  8
0
 10
39219.71526642922
 20
-4879.091468253562
  0
VERTEX
  8
0
 10
39220.17742473011
 20
-4877.76992125945
  0
VERTEX
  8
0
 10
39220.66981777226
 20
-4876.475570814131
  0
VERTEX
  8
0
 10
39221.15541047425
 20
-4875.180329589778
  0
VERTEX
  8
0
 10
39221.62908557135
 20
-4873.883527274019
  0
VERTEX
  8
0
 10
39222.08572579885
 20
-4872.584493554486
  0
VERTEX
  8
0
 10
39222.520213892
 20
-4871.282558118808
  0
VERTEX
  8
0
 10
39222.9274325861
 20
-4869.977050654616
  0
VERTEX
  8
0
 10
39223.30226461641
 20
-4868.667300849536
  0
VERTEX
  8
0
 10
39223.63959271821
 20
-4867.352638391204
  0
VERTEX
  8
0
 10
39223.93429962678
 20
-4866.032392967247
  0
VERTEX
  8
0
 10
39224.1812680774
 20
-4864.705894265295
  0
VERTEX
  8
0
 10
39224.37538080534
 20
-4863.372471972978
  0
VERTEX
  8
0
 10
39224.51152054587
 20
-4862.031455777927
  0
VERTEX
  8
0
 10
39224.58688138465
 20
-4860.682478132396
  0
VERTEX
  8
0
 10
39224.60977515869
 20
-4859.32662780695
  0
VERTEX
  8
0
 10
39224.59185231854
 20
-4857.965430898339
  0
VERTEX
  8
0
 10
39224.54476395962
 20
-4856.600413587806
  0
VERTEX
  8
0
 10
39224.4801611774
 20
-4855.233102056586
  0
VERTEX
  8
0
 10
39224.23811471069
 20
-4854.004387053813
  0
VERTEX
  8
0
 10
39223.76332491704
 20
-4852.948784665932
  0
VERTEX
  8
0
 10
39223.20833570188
 20
-4851.934513221103
  0
VERTEX
  8
0
 10
39222.57137628552
 20
-4850.959969972297
  0
VERTEX
  8
0
 10
39221.85067588829
 20
-4850.023552172488
  0
VERTEX
  8
0
 10
39221.0444637305
 20
-4849.12365707465
  0
VERTEX
  8
0
 10
39220.1509690325
 20
-4848.258681931756
  0
VERTEX
  8
0
 10
39219.16842101458
 20
-4847.427023996779
  0
VERTEX
  8
0
 10
39218.09504889707
 20
-4846.627080522694
  0
VERTEX
  8
0
 10
39216.9290819003
 20
-4845.857248762474
  0
VERTEX
  8
0
 10
39215.66874924459
 20
-4845.115925969091
  0
VERTEX
  8
0
 10
39214.31228015027
 20
-4844.40150939552
  0
VERTEX
  8
0
 10
39212.85790383765
 20
-4843.712396294735
  0
VERTEX
  8
0
 10
39211.30384952704
 20
-4843.046983919709
  0
VERTEX
  8
0
 10
39209.6483464388
 20
-4842.403669523414
  0
VERTEX
  8
0
 10
39207.88962379322
 20
-4841.780850358824
  0
VERTEX
  8
0
 10
39206.36838393414
 20
-4841.335206965744
  0
VERTEX
  8
0
 10
39205.04604592345
 20
-4840.994663949176
  0
VERTEX
  8
0
 10
39203.72368033719
 20
-4840.654309561821
  0
VERTEX
  8
0
 10
39202.40127004054
 20
-4840.314261013884
  0
VERTEX
  8
0
 10
39201.07879789863
 20
-4839.974635515571
  0
VERTEX
  8
0
 10
39199.7562467766
 20
-4839.63555027709
  0
VERTEX
  8
0
 10
39198.43359953957
 20
-4839.297122508648
  0
VERTEX
  8
0
 10
39197.11083905273
 20
-4838.95946942045
  0
VERTEX
  8
0
 10
39195.78794818117
 20
-4838.622708222702
  0
VERTEX
  8
0
 10
39194.46490979005
 20
-4838.286956125612
  0
VERTEX
  8
0
 10
39193.14170674451
 20
-4837.952330339385
  0
VERTEX
  8
0
 10
39191.8183219097
 20
-4837.618948074229
  0
VERTEX
  8
0
 10
39190.49473815075
 20
-4837.28692654035
  0
VERTEX
  8
0
 10
39189.17093833279
 20
-4836.956382947955
  0
VERTEX
  8
0
 10
39187.84690532099
 20
-4836.62743450725
  0
VERTEX
  8
0
 10
39186.52262198047
 20
-4836.30019842844
  0
VERTEX
  8
0
 10
39185.19807117636
 20
-4835.974791921733
  0
VERTEX
  8
0
 10
39183.87323577383
 20
-4835.651332197335
  0
VERTEX
  8
0
 10
39182.54809863799
 20
-4835.329936465454
  0
VERTEX
  8
0
 10
39181.22264263401
 20
-4835.010721936294
  0
VERTEX
  8
0
 10
39179.896850627
 20
-4834.693805820065
  0
VERTEX
  8
0
 10
39178.57070548213
 20
-4834.379305326971
  0
VERTEX
  8
0
 10
39177.24419006451
 20
-4834.067337667218
  0
VERTEX
  8
0
 10
39175.9172872393
 20
-4833.758020051013
  0
VERTEX
  8
0
 10
39174.58997987165
 20
-4833.451469688563
  0
VERTEX
  8
0
 10
39173.26225082668
 20
-4833.147803790074
  0
VERTEX
  8
0
 10
39171.93408296954
 20
-4832.847139565753
  0
VERTEX
  8
0
 10
39170.60545916536
 20
-4832.549594225808
  0
VERTEX
  8
0
 10
39169.27636227929
 20
-4832.255284980442
  0
VERTEX
  8
0
 10
39167.94677517648
 20
-4831.964329039864
  0
VERTEX
  8
0
 10
39166.61668072204
 20
-4831.67684361428
  0
VERTEX
  8
0
 10
39165.28606178115
 20
-4831.392945913895
  0
VERTEX
  8
0
 10
39163.95490121892
 20
-4831.112753148918
  0
VERTEX
  8
0
 10
39162.6231819005
 20
-4830.836382529556
  0
VERTEX
  8
0
 10
39161.29088669104
 20
-4830.563951266011
  0
VERTEX
  8
0
 10
39159.95799845566
 20
-4830.295576568494
  0
VERTEX
  8
0
 10
39158.62450005952
 20
-4830.03137564721
  0
VERTEX
  8
0
 10
39157.29037436775
 20
-4829.771465712363
  0
VERTEX
  8
0
 10
39155.9556042455
 20
-4829.515963974164
  0
VERTEX
  8
0
 10
39154.62017255789
 20
-4829.264987642816
  0
VERTEX
  8
0
 10
39153.28406217008
 20
-4829.018653928528
  0
VERTEX
  8
0
 10
39151.94725594721
 20
-4828.777080041506
  0
VERTEX
  8
0
 10
39150.60973675441
 20
-4828.540383191954
  0
VERTEX
  8
0
 10
39149.27148745682
 20
-4828.30868059008
  0
VERTEX
  8
0
 10
39147.93249091959
 20
-4828.082089446092
  0
VERTEX
  8
0
 10
39146.59273000785
 20
-4827.860726970195
  0
VERTEX
  8
0
 10
39145.25218758676
 20
-4827.644710372596
  0
VERTEX
  8
0
 10
39143.91084652144
 20
-4827.434156863501
  0
VERTEX
  8
0
 10
39142.56868967704
 20
-4827.229183653117
  0
VERTEX
  8
0
 10
39141.22569991869
 20
-4827.029907951651
  0
VERTEX
  8
0
 10
39139.88186011155
 20
-4826.836446969308
  0
VERTEX
  8
0
 10
39138.53715312074
 20
-4826.648917916295
  0
VERTEX
  8
0
 10
39137.19156181141
 20
-4826.467438002819
  0
VERTEX
  8
0
 10
39111.37102086964
 20
-4822.895693840415
  0
VERTEX
  8
0
 10
39096.08445133297
 20
-4820.865535425666
  0
VERTEX
  8
0
 10
39094.32360019896
 20
-4820.743022646016
  0
VERTEX
  8
0
 10
39092.69500149883
 20
-4820.638448065411
  0
VERTEX
  8
0
 10
39091.07201201795
 20
-4820.533976138468
  0
VERTEX
  8
0
 10
39089.45460536413
 20
-4820.429636220474
  0
VERTEX
  8
0
 10
39087.84275514513
 20
-4820.325457666721
  0
VERTEX
  8
0
 10
39086.23643496876
 20
-4820.221469832495
  0
VERTEX
  8
0
 10
39084.63561844278
 20
-4820.117702073088
  0
VERTEX
  8
0
 10
39083.04027917499
 20
-4820.014183743788
  0
VERTEX
  8
0
 10
39081.45039077319
 20
-4819.910944199882
  0
VERTEX
  8
0
 10
39079.86592684516
 20
-4819.80801279666
  0
VERTEX
  8
0
 10
39078.28686099868
 20
-4819.705418889411
  0
VERTEX
  8
0
 10
39076.71316684155
 20
-4819.603191833425
  0
VERTEX
  8
0
 10
39075.14481798154
 20
-4819.50136098399
  0
VERTEX
  8
0
 10
39073.58178802646
 20
-4819.399955696394
  0
VERTEX
  8
0
 10
39072.02405058407
 20
-4819.299005325928
  0
VERTEX
  8
0
 10
39070.47157926218
 20
-4819.19853922788
  0
VERTEX
  8
0
 10
39068.92434766857
 20
-4819.098586757539
  0
VERTEX
  8
0
 10
39067.38232941102
 20
-4818.999177270194
  0
VERTEX
  8
0
 10
39065.84549809733
 20
-4818.900340121135
  0
VERTEX
  8
0
 10
39064.31382733527
 20
-4818.802104665648
  0
VERTEX
  8
0
 10
39062.78729073265
 20
-4818.704500259026
  0
VERTEX
  8
0
 10
39061.26586189724
 20
-4818.607556256553
  0
VERTEX
  8
0
 10
39059.74951443684
 20
-4818.511302013522
  0
VERTEX
  8
0
 10
39058.23822195922
 20
-4818.415766885221
  0
VERTEX
  8
0
 10
39056.73195807218
 20
-4818.320980226938
  0
VERTEX
  8
0
 10
39055.23069638351
 20
-4818.226971393964
  0
VERTEX
  8
0
 10
39053.734410501
 20
-4818.133769741587
  0
VERTEX
  8
0
 10
39052.24307403241
 20
-4818.041404625093
  0
VERTEX
  8
0
 10
39050.75666058557
 20
-4817.949905399775
  0
VERTEX
  8
0
 10
39049.27514376822
 20
-4817.859301420922
  0
VERTEX
  8
0
 10
39047.7984971882
 20
-4817.769622043819
  0
VERTEX
  8
0
 10
39046.32669445324
 20
-4817.680896623759
  0
VERTEX
  8
0
 10
39044.85970917117
 20
-4817.593154516028
  0
VERTEX
  8
0
 10
39043.39751494976
 20
-4817.506425075918
  0
VERTEX
  8
0
 10
39041.94008539681
 20
-4817.420737658716
  0
VERTEX
  8
0
 10
39040.48739412009
 20
-4817.33612161971
  0
VERTEX
  8
0
 10
39039.0394147274
 20
-4817.252606314191
  0
VERTEX
  8
0
 10
39037.59612082652
 20
-4817.170221097447
  0
VERTEX
  8
0
 10
39036.15748602524
 20
-4817.088995324768
  0
VERTEX
  8
0
 10
39034.72348393135
 20
-4817.008958351442
  0
VERTEX
  8
0
 10
39033.29408815263
 20
-4816.930139532757
  0
VERTEX
  8
0
 10
39031.86927229688
 20
-4816.852568224004
  0
VERTEX
  8
0
 10
39030.44900997188
 20
-4816.776273780471
  0
VERTEX
  8
0
 10
39029.0332747854
 20
-4816.701285557447
  0
VERTEX
  8
0
 10
39027.62204034527
 20
-4816.62763291022
  0
VERTEX
  8
0
 10
39026.21528025923
 20
-4816.55534519408
  0
VERTEX
  8
0
 10
39024.81296813511
 20
-4816.484451764318
  0
VERTEX
  8
0
 10
39023.41507758066
 20
-4816.414981976219
  0
VERTEX
  8
0
 10
39022.02158220368
 20
-4816.346965185074
  0
VERTEX
  8
0
 10
39020.63245561197
 20
-4816.280430746172
  0
VERTEX
  8
0
 10
39019.24767141331
 20
-4816.215408014802
  0
VERTEX
  8
0
 10
39017.86720321548
 20
-4816.151926346251
  0
VERTEX
  8
0
 10
39016.49102462628
 20
-4816.090015095811
  0
VERTEX
  8
0
 10
39015.11910925348
 20
-4816.029703618771
  0
VERTEX
  8
0
 10
39013.75143070488
 20
-4815.971021270416
  0
VERTEX
  8
0
 10
39012.38796258828
 20
-4815.913997406039
  0
VERTEX
  8
0
 10
39011.02867851143
 20
-4815.858661380927
  0
VERTEX
  8
0
 10
39009.67355208216
 20
-4815.805042550371
  0
VERTEX
  8
0
 10
39008.32255690822
 20
-4815.753170269656
  0
VERTEX
  8
0
 10
39006.97566659743
 20
-4815.703073894075
  0
VERTEX
  8
0
 10
39005.63285475755
 20
-4815.654782778915
  0
VERTEX
  8
0
 10
39004.29409499637
 20
-4815.608326279465
  0
VERTEX
  8
0
 10
39002.9593609217
 20
-4815.563733751013
  0
VERTEX
  8
0
 10
39001.62862614131
 20
-4815.521034548851
  0
VERTEX
  8
0
 10
39000.30186426299
 20
-4815.480258028267
  0
VERTEX
  8
0
 10
38998.97904889454
 20
-4815.441433544548
  0
VERTEX
  8
0
 10
38997.66015364372
 20
-4815.404590452984
  0
VERTEX
  8
0
 10
38996.34515211834
 20
-4815.369758108864
  0
VERTEX
  8
0
 10
38995.03401792618
 20
-4815.336965867476
  0
VERTEX
  8
0
 10
38993.72672467503
 20
-4815.306243084113
  0
VERTEX
  8
0
 10
38992.42324597267
 20
-4815.277619114058
  0
VERTEX
  8
0
 10
38991.12355542689
 20
-4815.251123312604
  0
VERTEX
  8
0
 10
38989.82762664548
 20
-4815.22678503504
  0
VERTEX
  8
0
 10
38979.52486544108
 20
-4815.231783102304
  0
VERTEX
  8
0
 10
38890.04980590929
 20
-4815.296709659691
  0
VERTEX
  8
0
 10
38856.33488563229
 20
-4815.220689407372
  0
VERTEX
  8
0
 10
38855.03995116433
 20
-4815.244449931509
  0
VERTEX
  8
0
 10
38853.74126193914
 20
-4815.270375773355
  0
VERTEX
  8
0
 10
38852.43879156448
 20
-4815.298437577621
  0
VERTEX
  8
0
 10
38851.13251364816
 20
-4815.328605989017
  0
VERTEX
  8
0
 10
38849.82240179795
 20
-4815.360851652255
  0
VERTEX
  8
0
 10
38848.50842962165
 20
-4815.395145212047
  0
VERTEX
  8
0
 10
38847.19057072703
 20
-4815.431457313101
  0
VERTEX
  8
0
 10
38845.86879872189
 20
-4815.46975860013
  0
VERTEX
  8
0
 10
38844.54308721403
 20
-4815.510019717845
  0
VERTEX
  8
0
 10
38843.21340981121
 20
-4815.552211310957
  0
VERTEX
  8
0
 10
38841.87974012124
 20
-4815.596304024179
  0
VERTEX
  8
0
 10
38840.54205175188
 20
-4815.642268502216
  0
VERTEX
  8
0
 10
38839.20031831095
 20
-4815.690075389785
  0
VERTEX
  8
0
 10
38837.85451340622
 20
-4815.739695331596
  0
VERTEX
  8
0
 10
38836.50461064548
 20
-4815.791098972358
  0
VERTEX
  8
0
 10
38835.15058363651
 20
-4815.844256956782
  0
VERTEX
  8
0
 10
38833.79240598711
 20
-4815.899139929581
  0
VERTEX
  8
0
 10
38832.43005130507
 20
-4815.955718535465
  0
VERTEX
  8
0
 10
38831.06349319815
 20
-4816.013963419146
  0
VERTEX
  8
0
 10
38829.69270527417
 20
-4816.073845225333
  0
VERTEX
  8
0
 10
38828.31766114089
 20
-4816.135334598739
  0
VERTEX
  8
0
 10
38826.93833440613
 20
-4816.198402184074
  0
VERTEX
  8
0
 10
38825.55469867765
 20
-4816.26301862605
  0
VERTEX
  8
0
 10
38824.16672756324
 20
-4816.329154569376
  0
VERTEX
  8
0
 10
38822.7743946707
 20
-4816.396780658766
  0
VERTEX
  8
0
 10
38821.37767360781
 20
-4816.465867538929
  0
VERTEX
  8
0
 10
38819.97653798235
 20
-4816.536385854576
  0
VERTEX
  8
0
 10
38818.57096140213
 20
-4816.608306250419
  0
VERTEX
  8
0
 10
38817.1609174749
 20
-4816.681599371168
  0
VERTEX
  8
0
 10
38815.74637980849
 20
-4816.756235861535
  0
VERTEX
  8
0
 10
38814.32732201065
 20
-4816.83218636623
  0
VERTEX
  8
0
 10
38812.90371768919
 20
-4816.909421529965
  0
VERTEX
  8
0
 10
38811.4755404519
 20
-4816.987911997451
  0
VERTEX
  8
0
 10
38810.04276390655
 20
-4817.067628413399
  0
VERTEX
  8
0
 10
38808.60536166094
 20
-4817.14854142252
  0
VERTEX
  8
0
 10
38807.16330732286
 20
-4817.230621669524
  0
VERTEX
  8
0
 10
38805.71657450008
 20
-4817.313839799122
  0
VERTEX
  8
0
 10
38804.2651368004
 20
-4817.398166456028
  0
VERTEX
  8
0
 10
38802.80896783161
 20
-4817.48357228495
  0
VERTEX
  8
0
 10
38801.34804120149
 20
-4817.570027930599
  0
VERTEX
  8
0
 10
38799.88233051783
 20
-4817.657504037688
  0
VERTEX
  8
0
 10
38798.41180938842
 20
-4817.745971250928
  0
VERTEX
  8
0
 10
38796.93645142105
 20
-4817.835400215027
  0
VERTEX
  8
0
 10
38795.45623022348
 20
-4817.925761574699
  0
VERTEX
  8
0
 10
38793.97111940354
 20
-4818.017025974656
  0
VERTEX
  8
0
 10
38792.48109256899
 20
-4818.109164059604
  0
VERTEX
  8
0
 10
38790.98612332762
 20
-4818.202146474259
  0
VERTEX
  8
0
 10
38789.48618528723
 20
-4818.295943863331
  0
VERTEX
  8
0
 10
38787.9812520556
 20
-4818.390526871529
  0
VERTEX
  8
0
 10
38786.47129724051
 20
-4818.485866143566
  0
VERTEX
  8
0
 10
38784.95629444975
 20
-4818.581932324151
  0
VERTEX
  8
0
 10
38783.43621729113
 20
-4818.678696057998
  0
VERTEX
  8
0
 10
38781.9110393724
 20
-4818.776127989816
  0
VERTEX
  8
0
 10
38780.38073430138
 20
-4818.874198764316
  0
VERTEX
  8
0
 10
38778.84527568582
 20
-4818.972879026211
  0
VERTEX
  8
0
 10
38777.30463713354
 20
-4819.072139420208
  0
VERTEX
  8
0
 10
38775.75879225233
 20
-4819.171950591022
  0
VERTEX
  8
0
 10
38774.20771464995
 20
-4819.272283183363
  0
VERTEX
  8
0
 10
38772.65137793421
 20
-4819.373107841942
  0
VERTEX
  8
0
 10
38771.08975571288
 20
-4819.474395211469
  0
VERTEX
  8
0
 10
38769.52282159377
 20
-4819.576115936657
  0
VERTEX
  8
0
 10
38767.95054918464
 20
-4819.678240662214
  0
VERTEX
  8
0
 10
38766.37291209331
 20
-4819.780740032852
  0
VERTEX
  8
0
 10
38764.78988392753
 20
-4819.883584693286
  0
VERTEX
  8
0
 10
38763.20143829512
 20
-4819.986745288222
  0
VERTEX
  8
0
 10
38761.60754880384
 20
-4820.090192462373
  0
VERTEX
  8
0
 10
38760.0081890615
 20
-4820.193896860451
  0
VERTEX
  8
0
 10
38758.40333267587
 20
-4820.297829127165
  0
VERTEX
  8
0
 10
38756.79295325476
 20
-4820.401959907227
  0
VERTEX
  8
0
 10
38755.17702440593
 20
-4820.506259845349
  0
VERTEX
  8
0
 10
38753.55551973719
 20
-4820.610699586239
  0
VERTEX
  8
0
 10
38751.9284128563
 20
-4820.715249774613
  0
VERTEX
  8
0
 10
38750.29567737108
 20
-4820.819881055178
  0
VERTEX
  8
0
 10
38741.86346637349
 20
-4821.883132818866
  0
VERTEX
  8
0
 10
38708.98491519503
 20
-4826.420286239174
  0
VERTEX
  8
0
 10
38707.63908622085
 20
-4826.60014041736
  0
VERTEX
  8
0
 10
38706.29414611449
 20
-4826.786074854356
  0
VERTEX
  8
0
 10
38704.95007774109
 20
-4826.977972339953
  0
VERTEX
  8
0
 10
38703.6068639658
 20
-4827.175715663946
  0
VERTEX
  8
0
 10
38702.26448765375
 20
-4827.379187616128
  0
VERTEX
  8
0
 10
38700.92293167008
 20
-4827.588270986292
  0
VERTEX
  8
0
 10
38699.58217887994
 20
-4827.802848564232
  0
VERTEX
  8
0
 10
38698.24221214846
 20
-4828.022803139741
  0
VERTEX
  8
0
 10
38696.90301434077
 20
-4828.248017502613
  0
VERTEX
  8
0
 10
38695.56456832204
 20
-4828.478374442641
  0
VERTEX
  8
0
 10
38694.22685695739
 20
-4828.71375674962
  0
VERTEX
  8
0
 10
38692.88986311196
 20
-4828.954047213343
  0
VERTEX
  8
0
 10
38691.5535696509
 20
-4829.199128623602
  0
VERTEX
  8
0
 10
38690.21795943934
 20
-4829.448883770191
  0
VERTEX
  8
0
 10
38688.88301534243
 20
-4829.703195442905
  0
VERTEX
  8
0
 10
38687.54872022531
 20
-4829.961946431536
  0
VERTEX
  8
0
 10
38686.21505695311
 20
-4830.225019525878
  0
VERTEX
  8
0
 10
38684.88200839099
 20
-4830.492297515724
  0
VERTEX
  8
0
 10
38683.54955740407
 20
-4830.763663190868
  0
VERTEX
  8
0
 10
38682.21768685749
 20
-4831.038999341104
  0
VERTEX
  8
0
 10
38680.88637961642
 20
-4831.318188756224
  0
VERTEX
  8
0
 10
38679.55561854596
 20
-4831.601114226023
  0
VERTEX
  8
0
 10
38678.22538651127
 20
-4831.887658540294
  0
VERTEX
  8
0
 10
38676.8956663775
 20
-4832.177704488831
  0
VERTEX
  8
0
 10
38675.56644100977
 20
-4832.471134861426
  0
VERTEX
  8
0
 10
38674.23769327324
 20
-4832.767832447874
  0
VERTEX
  8
0
 10
38672.90940603304
 20
-4833.067680037969
  0
SEQEND
  8
0
  0
POLYLINE
  8
0
 66
     1
  0
VERTEX
  8
0
 10
39192.90952657213
 20
-5491.726838767211
  0
VERTEX
  8
0
 10
39192.90952657213
 20
-5506.841169611874
 42
-0.414294029309
  0
VERTEX
  8
0
 10
39177.90954087725
 20
-5521.840882732437
  0
VERTEX
  8
0
 10
38672.90942643632
 20
-5521.841225497808
  0
VERTEX
  8
0
 10
38152.90946082312
 20
-5521.840882732437
  0
VERTEX
  8
0
 10
37647.90933106888
 20
-5521.840882732437
 42
-0.414294029309
  0
VERTEX
  8
0
 10
37632.90934537401
 20
-5506.841169611874
  0
VERTEX
  8
0
 10
37632.90934537401
 20
-5491.726838767211
  0
SEQEND
  8
0
  0
POLYLINE
  8
0
 66
     1
  0
VERTEX
  8
0
 10
37632.90934537401
 20
-4781.656309320801
  0
VERTEX
  8
0
 10
37632.90934537401
 20
-4776.713699044049
 42
-0.414390990641
  0
VERTEX
  8
0
 10
37637.90934060563
 20
-4771.713703812419
  0
VERTEX
  8
0
 10
38412.90943597307
 20
-4771.713703812419
  0
VERTEX
  8
0
 10
39187.90953134053
 20
-4771.713703812419
 42
-0.414390990641
  0
VERTEX
  8
0
 10
39192.90952657216
 20
-4776.713699044049
  0
VERTEX
  8
0
 10
39192.90952657216
 20
-4781.656309320801
  0
SEQEND
  8
0
  0
DIMENSION
  8
1DIM
  2
*D484
 10
39192.90948017631
 20
-5721.841222201911
 11
38412.90948016597
 21
-5672.841222201911
 70
    32
 13
37632.90948015563
 23
-5871.841222201911
 33
0.0
 14
39192.90948017631
 24
-5871.841222201911
 34
0.0
  0
POLYLINE
  8
0
 66
     1
  0
VERTEX
  8
0
 10
40521.42950585784
 20
-5986.225043351662
 42
0.108840099651
  0
VERTEX
  8
0
 10
40506.82080834478
 20
-5884.760649228034
 42
0.227334549542
  0
VERTEX
  8
0
 10
40405.4305886649
 20
-5950.308737143121
 42
0.043674001862
  0
VERTEX
  8
0
 10
40348.42134518576
 20
-6074.82654352678
  0
SEQEND
  8
0
  0
POLYLINE
  8
1HIDDEN
 66
     1
  0
VERTEX
  8
1HIDDEN
 10
40348.42134518576
 20
-6074.82654352678
 42
0.020384375839
  0
VERTEX
  8
1HIDDEN
 10
40329.42440017502
 20
-6135.95712969446
 42
0.198224624818
  0
VERTEX
  8
1HIDDEN
 10
40352.72259003911
 20
-6286.200232625161
 42
0.221445851776
  0
VERTEX
  8
1HIDDEN
 10
40440.69784833964
 20
-6196.538254744098
  0
SEQEND
  8
1HIDDEN
  0
ENDSEC
  0
EOF
