  0
SECTION
  2
HEADER
  9
$ACADVER
  1
AC1004
  9
$INSBASE
 10
0.0
 20
0.0
  9
$EXTMIN
 10
37269.26194499482
 20
-6834.82651730407
  9
$EXTMAX
 10
40743.40160987386
 20
-4772.9653384723
  9
$LIMMIN
 10
0.0
 20
0.0
  9
$LIMMAX
 10
12.0
 20
9.0
  9
$ORTHOMODE
 70
     0
  9
$REGENMODE
 70
     1
  9
$FILLMODE
 70
     1
  9
$QTEXTMODE
 70
     0
  9
$DRAGMODE
 70
     2
  9
$LTSCALE
 40
0.5
  9
$OSMODE
 70
  2175
  9
$ATTMODE
 70
     1
  9
$TEXTSIZE
 40
4.0
  9
$TRACEWID
 40
0.05
  9
$TEXTSTYLE
  7
STANDARD
  9
$CLAYER
  8
0
  9
$CELTYPE
  6
BYLAYER
  9
$CECOLOR
 62
   256
  9
$DIMSCALE
 40
20.0
  9
$DIMASZ
 40
2.0
  9
$DIMEXO
 40
0.0
  9
$DIMDLI
 40
7.0
  9
$DIMRND
 40
0.0
  9
$DIMDLE
 40
0.0
  9
$DIMEXE
 40
1.0
  9
$DIMTP
 40
0.0
  9
$DIMTM
 40
0.0
  9
$DIMTXT
 40
3.5
  9
$DIMCEN
 40
0.0
  9
$DIMTSZ
 40
0.0
  9
$DIMTOL
 70
     0
  9
$DIMLIM
 70
     0
  9
$DIMTIH
 70
     0
  9
$DIMTOH
 70
     0
  9
$DIMSE1
 70
     0
  9
$DIMSE2
 70
     0
  9
$DIMTAD
 70
     1
  9
$DIMZIN
 70
     8
  9
$DIMBLK
  1

  9
$DIMASO
 70
     1
  9
$DIMSHO
 70
     1
  9
$DIMPOST
  1
 
  9
$DIMAPOST
  1

  9
$DIMALT
 70
     0
  9
$DIMALTD
 70
     2
  9
$DIMALTF
 40
25.4
  9
$DIMLFAC
 40
1.0
  9
$DIMTOFL
 70
     1
  9
$DIMTVP
 40
0.0
  9
$DIMTIX
 70
     0
  9
$DIMSOXD
 70
     0
  9
$DIMSAH
 70
     1
  9
$DIMBLK1
  1
OPEN30
  9
$DIMBLK2
  1
OPEN30
  9
$LUNITS
 70
     2
  9
$LUPREC
 70
     4
  9
$SKETCHINC
 40
0.1
  9
$FILLETRAD
 40
5.8
  9
$AUNITS
 70
     0
  9
$AUPREC
 70
     2
  9
$MENU
  1
acad
  9
$ELEVATION
 40
0.0
  9
$THICKNESS
 40
0.0
  9
$LIMCHECK
 70
     0
  9
$CHAMFERA
 40
0.0
  9
$CHAMFERB
 40
0.0
  9
$SKPOLY
 70
     0
  9
$TDCREATE
 40
2448750.487089225
  9
$TDUPDATE
 40
2459428.670887014
  9
$TDINDWG
 40
2.8274273843
  9
$TDUSRTIMER
 40
2.8274273843
  9
$USRTIMER
 70
     1
  9
$ANGBASE
 50
0.0
  9
$ANGDIR
 70
     0
  9
$PDMODE
 70
     0
  9
$PDSIZE
 40
0.0
  9
$PLINEWID
 40
1.0
  9
$COORDS
 70
     2
  9
$SPLFRAME
 70
     0
  9
$SPLINETYPE
 70
     6
  9
$SPLINESEGS
 70
     8
  9
$ATTDIA
 70
     0
  9
$ATTREQ
 70
     1
  9
$SURFTAB1
 70
     6
  9
$SURFTAB2
 70
     6
  9
$SURFTYPE
 70
     6
  9
$SURFU
 70
     6
  9
$SURFV
 70
     6
  9
$UCSNAME
  2

  9
$UCSORG
 10
0.0
 20
0.0
 30
0.0
  9
$UCSXDIR
 10
1.0
 20
0.0
 30
0.0
  9
$UCSYDIR
 10
0.0
 20
1.0
 30
0.0
  9
$USERI1
 70
     0
  9
$USERI2
 70
     0
  9
$USERI3
 70
     0
  9
$USERI4
 70
     0
  9
$USERI5
 70
     0
  9
$USERR1
 40
0.0
  9
$USERR2
 40
0.0
  9
$USERR3
 40
0.0
  9
$USERR4
 40
0.0
  9
$USERR5
 40
0.0
  9
$WORLDVIEW
 70
     1
  0
ENDSEC
  0
SECTION
  2
TABLES
  0
TABLE
  2
LTYPE
 70
    12
  0
LTYPE
  2
CONTINUOUS
 70
     0
  3
Solid line
 72
    65
 73
     0
 40
0.0
  0
LTYPE
  2
HIDDEN
 70
     0
  3
Hidden __ __ __ __ __ __ __ __ __ __ __ __ __ _
 72
    65
 73
     2
 40
9.525
 49
6.35
 49
-3.175
  0
LTYPE
  2
PHANTOM2
 70
     0
  3
Phantom (0.5x) ___ _ _ ___ _ _ ___ _ _ ___ _ _
 72
    65
 73
     6
 40
31.75
 49
15.875
 49
-3.175
 49
3.175
 49
-3.175
 49
3.175
 49
-3.175
  0
LTYPE
  2
CENTER2
 70
     0
  3
Center (.5x) ___ _ ___ _ ___ _ ___ _ ___ _ ___
 72
    65
 73
     4
 40
28.575
 49
19.05
 49
-3.175
 49
3.175
 49
-3.175
  0
LTYPE
  2
HADAN
 70
     0
  3
Hadansen
 72
    65
 73
     4
 40
58.0
 49
50.0
 49
-2.0
 49
-4.0
 49
-2.0
  0
LTYPE
  2
BATTING
 70
     0
  3
Batting SSSSSSSSSSSSSSSSSSSSSSSSSSSSSSSSSSSSSSS
 72
    65
 73
     4
 40
10.16254
 49
0.00254
 49
-2.54
 49
-5.08
 49
-2.54
  0
LTYPE
  2
DASHED2
 70
     0
  3
Dashed (0.5x) _ _ _ _ _ _ _ _ _ _ _ _ _ _ _ _ _
 72
    65
 73
     2
 40
9.525
 49
6.35
 49
-3.175
  0
LTYPE
  2
FENCELINE1
 70
     0
  3
Fenceline circle -0-----0----0-----0----0-----0
 72
    65
 73
     4
 40
36.83
 49
3.81
 49
-2.54
 49
-2.54
 49
27.94
  0
LTYPE
  2
FENCELINE2
 70
     0
  3
Fenceline square -[]-----[]----[]-----[]----[]-
 72
    65
 73
     4
 40
36.83
 49
3.81
 49
-2.54
 49
-2.54
 49
27.94
  0
LTYPE
  2
TRACKS
 70
     0
  3
Tracks -|-|-|-|-|-|-|-|-|-|-|-|-|-|-|-|-|-|-|-|
 72
    65
 73
     2
 40
7.62
 49
3.81
 49
3.81
  0
LTYPE
  2
ZIGZAG
 70
     0
  3
Zig zag /\/\/\/\/\/\/\/\/\/\/\/\/\/\/\/\/\/\/\/
 72
    65
 73
     4
 40
20.32254
 49
0.00254
 49
-5.08
 49
-10.16
 49
-5.08
  0
LTYPE
  2
BORDER2
 70
     0
  3
Border (0.5x) __.__.__.__.__.__.__.__.__.__.__.
 72
    65
 73
     6
 40
22.225
 49
6.35
 49
-3.175
 49
6.35
 49
-3.175
 49
0.0
 49
-3.175
  0
ENDTAB
  0
TABLE
  2
LAYER
 70
    38
  0
LAYER
  2
0
 70
     0
 62
     7
  6
CONTINUOUS
  0
LAYER
  2
1DIM
 70
     0
 62
     8
  6
CONTINUOUS
  0
LAYER
  2
2VIEWPORT
 70
     0
 62
    -1
  6
CONTINUOUS
  0
LAYER
  2
01
 70
     0
 62
     1
  6
CONTINUOUS
  0
LAYER
  2
DEFPOINTS
 70
     0
 62
     7
  6
CONTINUOUS
  0
LAYER
  2
1HIDDEN
 70
     0
 62
     8
  6
HIDDEN
  0
LAYER
  2
1PHANTOM
 70
     0
 62
   254
  6
PHANTOM2
  0
LAYER
  2
03
 70
     0
 62
     3
  6
CONTINUOUS
  0
LAYER
  2
02
 70
     0
 62
     2
  6
CONTINUOUS
  0
LAYER
  2
1TEXT
 70
     0
 62
   201
  6
CONTINUOUS
  0
LAYER
  2
04
 70
     0
 62
     4
  6
CONTINUOUS
  0
LAYER
  2
POINT
 70
     0
 62
     7
  6
CONTINUOUS
  0
LAYER
  2
1HATCH
 70
     0
 62
     8
  6
CONTINUOUS
  0
LAYER
  2
05
 70
     0
 62
     5
  6
CONTINUOUS
  0
LAYER
  2
06
 70
     0
 62
     6
  6
CONTINUOUS
  0
LAYER
  2
07
 70
     0
 62
   143
  6
CONTINUOUS
  0
LAYER
  2
08
 70
     0
 62
    95
  6
CONTINUOUS
  0
LAYER
  2
09
 70
     0
 62
    15
  6
CONTINUOUS
  0
LAYER
  2
10
 70
     0
 62
   213
  6
CONTINUOUS
  0
LAYER
  2
11
 70
     0
 62
     7
  6
CONTINUOUS
  0
LAYER
  2
1CENTER
 70
     0
 62
   221
  6
CONTINUOUS
  0
LAYER
  2
1DIM1
 70
     0
 62
   221
  6
CONTINUOUS
  0
LAYER
  2
1DIM2
 70
     0
 62
   254
  6
CONTINUOUS
  0
LAYER
  2
1DIM3
 70
     0
 62
     8
  6
CONTINUOUS
  0
LAYER
  2
2BATTING
 70
     0
 62
     7
  6
BATTING
  0
LAYER
  2
2FENCELINE1
 70
     0
 62
     7
  6
FENCELINE1
  0
LAYER
  2
2FENCELINE2
 70
     0
 62
     7
  6
FENCELINE2
  0
LAYER
  2
2TRACKS
 70
     0
 62
     7
  6
TRACKS
  0
LAYER
  2
2ZIGZAG
 70
     0
 62
     7
  6
ZIGZAG
  0
LAYER
  2
2HADAN
 70
     0
 62
     7
  6
HADAN
  0
LAYER
  2
1TEXT2
 70
     0
 62
   221
  6
CONTINUOUS
  0
LAYER
  2
99WAKU
 70
     0
 62
   253
  6
CONTINUOUS
  0
LAYER
  2
MIDFINE
 70
     0
 62
     9
  6
CONTINUOUS
  0
LAYER
  2
THICK
 70
     0
 62
   252
  6
CONTINUOUS
  0
LAYER
  2
ZZ
 70
     0
 62
    -8
  6
CONTINUOUS
  0
LAYER
  2
ZZXX
 70
     0
 62
   243
  6
CONTINUOUS
  0
LAYER
  2
MAKE2D$VISIBLE$LINES
 70
     0
 62
     7
  6
CONTINUOUS
  0
LAYER
  2
MAKE2D$VISIBLE$TANGENTS
 70
     0
 62
     7
  6
CONTINUOUS
  0
ENDTAB
  0
TABLE
  2
STYLE
 70
     4
  0
STYLE
  2
STANDARD
 70
     0
 40
0.0
 41
1.0
 50
0.0
 71
     0
 42
4.0
  3
romans.shx
  4
extfont2.shx
  0
STYLE
  2
KAI
 70
     0
 40
0.0
 41
1.0
 50
0.0
 71
     0
 42
4.0
  3
HGSeikaishotaiPRO.ttf
  4

  0
STYLE
  2

 70
     1
 40
0.2
 41
1.0
 50
0.0
 71
     0
 42
4.0
  3
ltypeshp.shx
  4

  0
STYLE
  2
TATE2
 70
     4
 40
0.0
 41
1.0
 50
0.0
 71
     0
 42
4.0
  3
romans.shx
  4
@extfont2.shx
  0
ENDTAB
  0
TABLE
  2
VIEW
 70
     0
  0
ENDTAB
  0
ENDSEC
  0
SECTION
  2
BLOCKS
  0
BLOCK
  8
0
  2
_OPEN30
 70
     0
 10
0.0
 20
0.0
  0
LINE
  8
0
  6
BYBLOCK
 62
     0
 10
-1.0
 20
0.26794919
 11
0.0
 21
0.0
  0
LINE
  8
0
  6
BYBLOCK
 62
     0
 10
0.0
 20
0.0
 11
-1.0
 21
-0.26794919
  0
LINE
  8
0
  6
BYBLOCK
 62
     0
 10
0.0
 20
0.0
 11
-1.0
 21
0.0
  0
ENDBLK
  8
0
  0
BLOCK
  8
0
  2
NOCIRCLE
 70
     2
 10
0.0
 20
0.0
  0
CIRCLE
  8
0
  6
BYBLOCK
 62
     0
 10
0.0
 20
0.0
 40
4.2
  0
ATTDEF
  8
1TEXT
 10
-1.904761904762
 20
-2.0
 40
4.0
  1
0
 72
     4
 11
0.0
 21
0.0
  3
NO.
  2
NO
 70
     0
  0
ENDBLK
  8
0
  0
BLOCK
  8
0
  2
_OPEN
 70
     0
 10
0.0
 20
0.0
  0
LINE
  8
0
  6
BYBLOCK
 62
     0
 10
-1.0
 20
0.166667
 11
0.0
 21
0.0
  0
LINE
  8
0
  6
BYBLOCK
 62
     0
 10
-1.0
 20
-0.166667
 11
0.0
 21
0.0
  0
LINE
  8
0
  6
BYBLOCK
 62
     0
 10
0.0
 20
0.0
 11
-1.0
 21
0.0
  0
ENDBLK
  8
0
  0
BLOCK
  8
0
  2
YA__
 70
     0
 10
0.0
 20
0.0
  0
INSERT
  8
0
  2
YA_
 10
0.0
 20
0.0
 30
0.0
 50
180.0
  0
ENDBLK
  8
0
  0
BLOCK
  8
0
  2
YA_
 70
     0
 10
0.0
 20
0.0
  0
LINE
  8
0
 10
-5.598760219962
 20
0.622116757674
 11
-2.488360049962
 21
0.622116757674
  0
LINE
  8
0
 10
-5.598760219962
 20
-0.622043242326
 11
-2.488359989962
 21
-0.622043242326
  0
LINE
  8
0
 10
-5.598760219962
 20
0.622116757674
 11
-5.598760219962
 21
-0.622043242326
  0
LINE
  8
0
 10
-2.488360079962
 20
1.346879757674
 11
-2.488360049962
 21
0.622116757674
  0
LINE
  8
0
 10
0.155480482306
 20
-1.993947296099
 11
0.155480380551
 21
1.993947304034
  0
LINE
  8
0
 10
-0.000039515118
 20
-1.99999999961
 11
-0.000039719246
 21
1.999999999606
  0
LINE
  8
0
 10
-0.155559515297
 20
-1.993941131829
 11
-0.155559619962
 21
0.000036757674
  0
LINE
  8
0
 10
-0.155559619962
 20
0.000036757674
 11
-0.155559718965
 21
1.99394111594
  0
LINE
  8
0
 10
-2.488359989962
 20
-0.622043242326
 11
-2.488359959962
 21
-1.346806242326
  0
LINE
  8
0
 10
-0.155559619962
 20
0.000036757674
 11
-2.488360199962
 21
-1.346806242326
  0
LINE
  8
0
 10
-0.155559619962
 20
0.000036757674
 11
-2.488360079962
 21
1.346879757674
  0
POINT
  8
POINT
 10
0.0
 20
0.0
 30
0.0
  0
ENDBLK
  8
0
  0
BLOCK
  8
0
  2
金属脚
 70
     0
 10
0.0
 20
0.0
  0
LINE
  8
0
  6
BYBLOCK
 62
     0
 10
0.0
 20
0.0
 11
125.0
 21
0.0
  0
LINE
  8
0
  6
BYBLOCK
 62
     0
 10
7.011342610203
 20
-155.999982357025
 11
23.011342610203
 21
-155.999982357025
  0
LINE
  8
0
  6
BYBLOCK
 62
     0
 10
7.011342610203
 20
-155.999982357025
 11
7.011342610203
 21
-145.999982357025
  0
LINE
  8
0
  6
BYBLOCK
 62
     0
 10
23.011342610203
 20
-155.999982357025
 11
23.011342610218
 21
-145.999982357025
  0
LINE
  8
0
  6
BYBLOCK
 62
     0
 10
4.0
 20
-145.999982357025
 11
22.0
 21
-145.999982357025
  0
LINE
  8
0
  6
BYBLOCK
 62
     0
 10
4.0
 20
-5.999982357025
 11
4.0
 21
-145.999982357025
  0
LINE
  8
0
  6
BYBLOCK
 62
     0
 10
22.0
 20
-5.999982357025
 11
104.0
 21
-5.999982357025
  0
LINE
  8
0
  6
BYBLOCK
 62
     0
 10
22.0
 20
-145.999982357025
 11
26.0
 21
-145.999982357025
  0
ARC
  8
0
  6
BYBLOCK
 62
     0
 10
31.0
 20
-32.999982357025
 40
5.0
 50
90.0
 51
180.0
  0
LINE
  8
0
  6
BYBLOCK
 62
     0
 10
26.0
 20
-145.999982357025
 11
26.0
 21
-32.999982357025
  0
LINE
  8
0
  6
BYBLOCK
 62
     0
 10
31.0
 20
-27.999982357025
 11
104.0
 21
-27.999982357025
  0
LINE
  8
0
  6
BYBLOCK
 62
     0
 10
104.0
 20
-27.999982357025
 11
104.0
 21
-5.999982357025
  0
LINE
  8
0
  6
BYBLOCK
 62
     0
 10
125.0
 20
-5.999982357025
 11
119.999885559082
 21
-5.999982357025
  0
LINE
  8
0
  6
BYBLOCK
 62
     0
 10
125.0
 20
-5.999982357025
 11
125.0
 21
0.0
  0
LINE
  8
0
  6
BYBLOCK
 62
     0
 10
119.999885559082
 20
-5.999982357025
 11
0.0
 21
-5.999982357025
  0
LINE
  8
0
  6
BYBLOCK
 62
     0
 10
0.0
 20
-5.999982357025
 11
0.0
 21
0.0
  0
ENDBLK
  8
0
  0
BLOCK
  8
0
  2
A-A
 70
     0
 10
0.0
 20
0.0
  0
LINE
  8
0
 10
0.0
 20
0.0
 11
53.759996799999
 21
0.0
  0
LINE
  8
0
 10
8.0321632
 20
10.63999856
 11
11.2933376
 21
1.68
  0
LINE
  8
0
 10
3.36
 20
1.68000624
 11
6.6211696
 21
10.63998944
  0
LINE
  8
0
 10
9.8630848
 20
1.68
 11
11.2933392
 21
1.68
  0
LINE
  8
0
 10
8.905750399999
 20
4.31024896
 11
9.8630848
 21
1.67999952
  0
LINE
  8
0
 10
4.7902528
 20
1.68000016
 11
5.7475856
 21
4.31024864
  0
LINE
  8
0
 10
3.36
 20
1.68
 11
4.7902528
 21
1.68
  0
LINE
  8
0
 10
5.7475856
 20
4.31024928
 11
8.905750399999
 21
4.31024928
  0
LINE
  8
0
 10
6.171791999999
 20
5.47574928
 11
8.4815424
 21
5.47574928
  0
LINE
  8
0
 10
6.171791999999
 20
5.4757488
 11
7.3266672
 21
8.64873968
  0
LINE
  8
0
 10
7.326668799999
 20
8.64873888
 11
8.481544
 21
5.4757488
  0
LINE
  8
0
 10
12.678397759999
 20
5.57759664
 11
16.441594239999
 21
5.57759664
  0
LINE
  8
0
 10
12.678397759999
 20
6.65279616
 11
16.441594239999
 21
6.65279616
  0
ARC
  8
0
 10
12.678397759999
 20
5.93599664
 40
0.3583999840000001
 50
179.99994
 51
270.0
  0
ARC
  8
0
 10
12.678397759999
 20
6.29439616
 40
0.3583999840000001
 50
90.0
 51
179.99994
  0
LINE
  8
0
 10
12.319997759999
 20
6.29439616
 11
12.319997759999
 21
5.93599664
  0
ARC
  8
0
 10
16.441594239999
 20
6.29439616
 40
0.3583999840000001
 50
0.0
 51
90.0
  0
ARC
  8
0
 10
16.441594239999
 20
5.93599664
 40
0.3583999840000001
 50
270.0
 51
0.0
  0
LINE
  8
0
 10
16.79999424
 20
6.29439616
 11
16.79999424
 21
5.93599664
  0
LINE
  8
0
 10
6.621172799999
 20
10.63999856
 11
8.0321632
 21
10.63999856
  0
LINE
  8
0
 10
25.952162927999
 20
10.63999936
 11
29.21333792
 21
1.68000064
  0
LINE
  8
0
 10
21.279999519999
 20
1.68000528
 11
24.541168639999
 21
10.639988
  0
LINE
  8
0
 10
23.667586079999
 20
4.31024928
 11
26.8257509616
 21
4.31024928
  0
LINE
  8
0
 10
22.7102536
 20
1.67999904
 11
23.667586559999
 21
4.31024784
  0
LINE
  8
0
 10
21.28000064
 20
1.68
 11
22.71025168
 21
1.68
  0
LINE
  8
0
 10
24.09179248
 20
5.47574928
 11
26.401542576
 21
5.47574928
  0
LINE
  8
0
 10
24.091794239999
 20
5.475748
 11
25.24666896
 21
8.64873888
  0
LINE
  8
0
 10
25.2466664
 20
8.64873968
 11
26.401541424
 21
5.475748
  0
LINE
  8
0
 10
26.8257489648
 20
4.31024816
 11
27.783081824
 21
1.67999952
  0
LINE
  8
0
 10
27.783083439999
 20
1.68
 11
29.21333888
 21
1.68
  0
POINT
  8
0
 10
26.8799984
 20
0.0
 30
0.0
  0
POINT
  8
0
 10
26.8799984
 20
0.0
 30
0.0
  0
LINE
  8
0
 10
24.541171999999
 20
10.63999856
 11
25.952163024
 21
10.63999856
  0
TEXT
  8
0
 10
35.978853279999
 20
1.99199984
 40
8.0
  1
断面
 41
0.8643459
  0
ENDBLK
  8
0
  0
BLOCK
  8
0
  2
AA
 70
     0
 10
0.0
 20
0.0
  0
LINE
  8
0
 10
0.000001680067
 20
0.00000565232
 11
2.9117599
 21
7.9999905
  0
LINE
  8
0
 10
3.5416694
 20
6.2220893
 11
4.5728078
 21
3.3890617
  0
LINE
  8
0
 10
2.5105312
 20
3.3890617
 11
3.5416694
 21
6.2220888
  0
LINE
  8
0
 10
4.171576
 20
7.999999
 11
7.0833392
 21
0.000000048888
  0
LINE
  8
0
 10
2.1317739
 20
2.3484368
 11
4.9515643
 21
2.3484368
  0
LINE
  8
0
 10
2.5105309
 20
3.3890619
 11
4.5728073
 21
3.3890619
  0
LINE
  8
0
 10
0.000001907349
 20
0.0
 11
1.2770123
 21
0.0
  0
POINT
  8
0
 10
0.0
 20
0.0
 30
0.0
  0
LINE
  8
0
 10
1.2770127
 20
-0.000000009364
 11
2.1317742
 21
2.3484364
  0
LINE
  8
0
 10
5.8063259
 20
0.0
 11
7.0833392
 21
0.0
  0
LINE
  8
0
 10
4.9515648
 20
2.3484368
 11
5.8063259
 21
0.000000268506
  0
LINE
  8
0
 10
2.9117632
 20
7.999999
 11
4.171576
 21
7.999999
  0
ENDBLK
  8
0
  0
BLOCK
  8
0
  2
訂正1
 70
     0
 10
0.0
 20
0.0
  0
LINE
  8
1HATCH
 10
0.000000135843
 20
2.025
 11
2.33826804
 21
-2.0250009
  0
LINE
  8
1HATCH
 10
-2.33826867
 20
-2.025
 11
2.33826849
 21
-2.025
  0
TEXT
  8
1TEXT
 10
-0.434499620191
 20
-1.510450886077
 40
1.8
  1
1
 41
0.66666667
 72
     1
 11
0.051214667951
 21
-1.510450886077
  0
LINE
  8
1HATCH
 10
0.000000476316
 20
2.02500018
 11
-2.33826849
 21
-2.02499937
  0
ENDBLK
  8
0
  0
BLOCK
  8
0
  2
*D450
 70
     1
 10
0.0
 20
0.0
  0
LINE
  8
1DIM
 10
39723.27414405111
 20
-6074.826543530114
 11
39653.27414405111
 21
-6074.826543530114
  0
LINE
  8
1DIM
 10
39723.27414405111
 20
-6664.82651730407
 11
39653.27414405111
 21
-6664.82651730407
  0
LINE
  8
1DIM
 10
39673.27414405111
 20
-6114.826543530114
 11
39673.27414405111
 21
-6624.82651730407
  0
INSERT
  8
1DIM
  2
_OPEN30
 10
39673.27414405111
 20
-6074.826543530114
 30
0.0
 41
40.0
 42
40.0
 43
40.0
 50
90.0
  0
INSERT
  8
1DIM
  2
_OPEN30
 10
39673.27414405111
 20
-6664.82651730407
 30
0.0
 41
40.0
 42
40.0
 43
40.0
 50
270.0
  0
TEXT
  8
1DIM
  6
CONTINUOUS
 62
   201
 10
39659.27414405111
 20
-6469.826530417093
 40
70.0
  1
590
 50
90.0
  0
POINT
  8
DEFPOINTS
 62
     0
 10
39823.27414405111
 20
-6074.826543530114
 30
0.0
  0
POINT
  8
DEFPOINTS
 62
     0
 10
39823.27414405111
 20
-6664.82651730407
 30
0.0
  0
POINT
  8
DEFPOINTS
 62
     0
 10
39673.27414405111
 20
-6664.82651730407
 30
0.0
  0
ENDBLK
  8
0
  0
BLOCK
  8
0
  2
*D451
 70
     1
 10
0.0
 20
0.0
  0
LINE
  8
1DIM
 10
39823.27414405111
 20
-6764.82651730407
 11
39823.27414405111
 21
-6834.82651730407
  0
LINE
  8
1DIM
 10
40573.40160987386
 20
-6764.82651730407
 11
40573.40160987386
 21
-6834.82651730407
  0
LINE
  8
1DIM
 10
39863.27414405111
 20
-6814.82651730407
 11
40533.40160987386
 21
-6814.82651730407
  0
INSERT
  8
1DIM
  2
_OPEN30
 10
39823.27414405111
 20
-6814.82651730407
 30
0.0
 41
40.0
 42
40.0
 43
40.0
 50
180.0
  0
INSERT
  8
1DIM
  2
_OPEN30
 10
40573.40160987386
 20
-6814.82651730407
 30
0.0
 41
40.0
 42
40.0
 43
40.0
  0
TEXT
  8
1DIM
  6
CONTINUOUS
 62
   201
 10
40098.33787696248
 20
-6800.82651730407
 40
70.0
  1
750
  0
POINT
  8
DEFPOINTS
 62
     0
 10
39823.27414405111
 20
-6664.82651730407
 30
0.0
  0
POINT
  8
DEFPOINTS
 62
     0
 10
40573.40160987386
 20
-6664.82651730407
 30
0.0
  0
POINT
  8
DEFPOINTS
 62
     0
 10
40573.40160987386
 20
-6814.82651730407
 30
0.0
  0
ENDBLK
  8
0
  0
BLOCK
  8
0
  2
*D452
 70
     1
 10
0.0
 20
0.0
  0
LINE
  8
1DIM
 10
40673.40160987386
 20
-5873.093309854589
 11
40743.40160987386
 21
-5873.093309854589
  0
LINE
  8
1DIM
 10
40673.40160987386
 20
-6664.82651730407
 11
40743.40160987386
 21
-6664.82651730407
  0
LINE
  8
1DIM
 10
40723.40160987386
 20
-5913.093309854589
 11
40723.40160987386
 21
-6624.82651730407
  0
INSERT
  8
1DIM
  2
_OPEN30
 10
40723.40160987386
 20
-5873.093309854589
 30
0.0
 41
40.0
 42
40.0
 43
40.0
 50
90.0
  0
INSERT
  8
1DIM
  2
_OPEN30
 10
40723.40160987386
 20
-6664.82651730407
 30
0.0
 41
40.0
 42
40.0
 43
40.0
 50
270.0
  0
TEXT
  8
1DIM
  6
CONTINUOUS
 62
   201
 10
40709.40160987386
 20
-6368.959913579332
 40
70.0
  1
790
 50
90.0
  0
POINT
  8
DEFPOINTS
 62
     0
 10
40573.40160987386
 20
-5873.093309854589
 30
0.0
  0
POINT
  8
DEFPOINTS
 62
     0
 10
40573.40160987386
 20
-6664.82651730407
 30
0.0
  0
POINT
  8
DEFPOINTS
 62
     0
 10
40723.40160987386
 20
-6664.82651730407
 30
0.0
  0
ENDBLK
  8
0
  0
BLOCK
  8
0
  2
*D453
 70
     1
 10
0.0
 20
0.0
  0
LINE
  8
1DIM
 10
39823.27414405111
 20
-5773.093309854589
 11
39823.27414405111
 21
-5703.093309854589
  0
LINE
  8
1DIM
 10
40323.49205468758
 20
-5773.093309854589
 11
40323.49205468758
 21
-5703.093309854589
  0
LINE
  8
1DIM
 10
39863.27414405111
 20
-5723.093309854589
 11
40283.49205468758
 21
-5723.093309854589
  0
INSERT
  8
1DIM
  2
_OPEN30
 10
39823.27414405111
 20
-5723.093309854589
 30
0.0
 41
40.0
 42
40.0
 43
40.0
 50
180.0
  0
INSERT
  8
1DIM
  2
_OPEN30
 10
40323.49205468758
 20
-5723.093309854589
 30
0.0
 41
40.0
 42
40.0
 43
40.0
  0
TEXT
  8
1DIM
  6
CONTINUOUS
 62
   201
 10
39973.38309936934
 20
-5709.093309854589
 40
70.0
  1
500
  0
POINT
  8
DEFPOINTS
 62
     0
 10
39823.27414405111
 20
-5873.093309854589
 30
0.0
  0
POINT
  8
DEFPOINTS
 62
     0
 10
40323.49205468758
 20
-5873.093309854589
 30
0.0
  0
POINT
  8
DEFPOINTS
 62
     0
 10
40323.49205468758
 20
-5723.093309854589
 30
0.0
  0
ENDBLK
  8
0
  0
BLOCK
  8
0
  2
*D470
 70
     1
 10
0.0
 20
0.0
  0
LINE
  8
1DIM
 10
37633.26192472925
 20
-5773.093309854589
 11
37633.26192472925
 21
-5703.093309854589
  0
LINE
  8
1DIM
 10
39193.26192472925
 20
-5773.093309854589
 11
39193.26192472925
 21
-5703.093309854589
  0
LINE
  8
1DIM
 10
37673.26192472925
 20
-5723.093309854589
 11
39153.26192472925
 21
-5723.093309854589
  0
INSERT
  8
1DIM
  2
_OPEN30
 10
37633.26192472925
 20
-5723.093309854589
 30
0.0
 41
40.0
 42
40.0
 43
40.0
 50
180.0
  0
INSERT
  8
1DIM
  2
_OPEN30
 10
39193.26192472925
 20
-5723.093309854589
 30
0.0
 41
40.0
 42
40.0
 43
40.0
  0
TEXT
  8
1DIM
  6
CONTINUOUS
 62
   201
 10
38274.92859139591
 20
-5709.093309854589
 40
70.0
  1
1560
  0
POINT
  8
DEFPOINTS
 62
     0
 10
37633.26192472925
 20
-5873.093309854589
 30
0.0
  0
POINT
  8
DEFPOINTS
 62
     0
 10
39193.26192472925
 20
-5873.093309854589
 30
0.0
  0
POINT
  8
DEFPOINTS
 62
     0
 10
39193.26192472925
 20
-5723.093309854589
 30
0.0
  0
ENDBLK
  8
0
  0
BLOCK
  8
0
  2
*D471
 70
     1
 10
0.0
 20
0.0
  0
LINE
  8
1DIM
 10
37403.26194499483
 20
-6264.838134035711
 11
37333.26194499483
 21
-6264.838134035711
  0
LINE
  8
1DIM
 10
37403.26194499483
 20
-6664.82651730407
 11
37333.26194499483
 21
-6664.82651730407
  0
LINE
  8
1DIM
 10
37353.26194499483
 20
-6304.838134035711
 11
37353.26194499483
 21
-6624.82651730407
  0
INSERT
  8
1DIM
  2
_OPEN30
 10
37353.26194499483
 20
-6264.838134035711
 30
0.0
 41
40.0
 42
40.0
 43
40.0
 50
90.0
  0
INSERT
  8
1DIM
  2
_OPEN30
 10
37353.26194499483
 20
-6664.82651730407
 30
0.0
 41
40.0
 42
40.0
 43
40.0
 50
270.0
  0
TEXT
  8
1DIM
  6
CONTINUOUS
 62
   201
 10
37339.26194499483
 20
-6564.832325669893
 40
70.0
  1
400
 50
90.0
  0
POINT
  8
DEFPOINTS
 62
     0
 10
37503.26194499483
 20
-6264.838134035711
 30
0.0
  0
POINT
  8
DEFPOINTS
 62
     0
 10
37503.26194499483
 20
-6664.82651730407
 30
0.0
  0
POINT
  8
DEFPOINTS
 62
     0
 10
37353.26194499483
 20
-6664.82651730407
 30
0.0
  0
ENDBLK
  8
0
  0
BLOCK
  8
0
  2
*D472
 70
     1
 10
0.0
 20
0.0
  0
LINE
  8
1DIM
 10
37503.26194499483
 20
-6764.82651730407
 11
37503.26194499483
 21
-6834.82651730407
  0
LINE
  8
1DIM
 10
39323.26190446367
 20
-6764.82651730407
 11
39323.26190446367
 21
-6834.82651730407
  0
LINE
  8
1DIM
 10
37543.26194499483
 20
-6814.82651730407
 11
39283.26190446367
 21
-6814.82651730407
  0
INSERT
  8
1DIM
  2
_OPEN30
 10
37503.26194499483
 20
-6814.82651730407
 30
0.0
 41
40.0
 42
40.0
 43
40.0
 50
180.0
  0
INSERT
  8
1DIM
  2
_OPEN30
 10
39323.26190446367
 20
-6814.82651730407
 30
0.0
 41
40.0
 42
40.0
 43
40.0
  0
TEXT
  8
1DIM
  6
CONTINUOUS
 62
   201
 10
38274.92859139591
 20
-6800.82651730407
 40
70.0
  1
1820
  0
POINT
  8
DEFPOINTS
 62
     0
 10
37503.26194499483
 20
-6664.82651730407
 30
0.0
  0
POINT
  8
DEFPOINTS
 62
     0
 10
39323.26190446367
 20
-6664.82651730407
 30
0.0
  0
POINT
  8
DEFPOINTS
 62
     0
 10
39323.26190446367
 20
-6814.82651730407
 30
0.0
  0
ENDBLK
  8
0
  0
ENDSEC
  0
SECTION
  2
ENTITIES
  0
LINE
  8
0
 10
39860.90161136398
 20
-6664.82651730407
 11
39895.90160778769
 21
-6664.82651730407
  0
LINE
  8
0
 10
40568.40161464224
 20
-6544.826519986279
 11
40563.40161941062
 21
-6544.826519986279
  0
LINE
  8
0
 10
40573.40160987386
 20
-6544.826519986279
 11
39838.40160953859
 21
-6544.826519986279
  0
LINE
  8
0
 10
39850.40161057422
 20
-6544.826519986279
 11
39843.40160942683
 21
-6544.826519986279
  0
LINE
  8
0
 10
40563.40161941062
 20
-6174.826507767327
 11
39848.40161024639
 21
-6174.826507767327
  0
ARC
  8
0
 10
40563.4016261541
 20
-6164.826524047575
 40
9.999983719753345
 50
269.999961362594
 51
0.0000386375
  0
ARC
  8
0
 10
39848.40159383069
 20
-6164.826523475233
 40
9.999984292104358
 50
179.999964641782
 51
270.000094055154
  0
LINE
  8
0
 10
39830.72356597567
 20
-6428.896417220719
 11
39830.38450076291
 21
-6427.502279480584
  0
POLYLINE
  8
0
 66
     1
  0
VERTEX
  8
0
 10
39838.40160953859
 20
-6286.81771955736
 42
0.090047911554
  0
VERTEX
  8
0
 10
39827.87478164749
 20
-6313.810945945431
 42
0.10272389388
  0
VERTEX
  8
0
 10
39830.5978957543
 20
-6428.584568251775
 42
0.221013777154
  0
VERTEX
  8
0
 10
39838.40160987387
 20
-6438.532110228874
  0
SEQEND
  8
0
  0
POLYLINE
  8
1HIDDEN
 66
     1
  0
VERTEX
  8
1HIDDEN
 10
40399.40161136398
 20
-6304.118630102427
 42
0.021426023471
  0
VERTEX
  8
1HIDDEN
 10
40137.31267350211
 20
-6269.375514561693
 42
0.036028515946
  0
VERTEX
  8
1HIDDEN
 10
39873.71793943749
 20
-6271.426271763205
 42
0.046505347099
  0
VERTEX
  8
1HIDDEN
 10
39854.92831514821
 20
-6274.96536165102
 42
0.148815603418
  0
VERTEX
  8
1HIDDEN
 10
39838.40160953859
 20
-6286.81771955736
  0
SEQEND
  8
1HIDDEN
  0
POLYLINE
  8
0
 66
     1
  0
VERTEX
  8
0
 10
40348.42135303251
 20
-6074.826517304065
 42
-0.068072730415
  0
VERTEX
  8
0
 10
40446.34452955237
 20
-5885.810694523801
 42
-0.343469375819
  0
VERTEX
  8
0
 10
40481.6172153287
 20
-5875.085882066714
  0
VERTEX
  8
0
 10
40544.16404149542
 20
-5899.095361431727
 42
-0.412806981218
  0
VERTEX
  8
0
 10
40549.93324448919
 20
-5911.969993352298
  0
VERTEX
  8
0
 10
40532.94771803696
 20
-5956.219301322934
  0
SEQEND
  8
0
  0
POLYLINE
  8
0
 66
     1
  0
VERTEX
  8
0
 10
40550.90163133154
 20
-6544.826519986279
  0
VERTEX
  8
0
 10
40550.90163133154
 20
-6664.82651730407
  0
VERTEX
  8
0
 10
40515.90160510549
 20
-6664.82651730407
  0
VERTEX
  8
0
 10
40495.90162417898
 20
-6544.826519986279
  0
SEQEND
  8
0
  0
POLYLINE
  8
0
 66
     1
  0
VERTEX
  8
0
 10
39915.90161106596
 20
-6544.826519986279
  0
VERTEX
  8
0
 10
39895.90160778769
 20
-6664.82651730407
  0
VERTEX
  8
0
 10
39860.90161136398
 20
-6664.82651730407
  0
VERTEX
  8
0
 10
39860.90161136398
 20
-6544.826519986279
  0
SEQEND
  8
0
  0
POLYLINE
  8
0
 66
     1
  0
VERTEX
  8
0
 10
40487.4186315299
 20
-6074.826543530114
  0
VERTEX
  8
0
 10
40532.93863914021
 20
-5956.242864330895
 42
-0.310511509382
  0
VERTEX
  8
0
 10
40542.27441945989
 20
-5949.82651730407
  0
VERTEX
  8
0
 10
40563.40160987386
 20
-5949.82651730407
 42
-0.414213562373
  0
VERTEX
  8
0
 10
40573.40160987386
 20
-5959.82651730407
  0
VERTEX
  8
0
 10
40573.40160987386
 20
-6544.826519986279
  0
SEQEND
  8
0
  0
POLYLINE
  8
0
 66
     1
  0
VERTEX
  8
0
 10
40573.40160987386
 20
-6084.82651730407
 42
0.414215137514
  0
VERTEX
  8
0
 10
40563.40161941062
 20
-6074.826543530112
  0
VERTEX
  8
0
 10
39848.40161024639
 20
-6074.826543530114
 42
0.414215404042
  0
VERTEX
  8
0
 10
39838.40160953859
 20
-6084.82651730407
  0
VERTEX
  8
0
 10
39838.40160953859
 20
-6544.826519986279
  0
SEQEND
  8
0
  0
DIMENSION
  8
1DIM
  2
*D450
 10
39673.27414405111
 20
-6664.82651730407
 11
39624.27414405111
 21
-6369.826530417092
 70
    32
 13
39823.27414405111
 23
-6074.826543530114
 33
0.0
 14
39823.27414405111
 24
-6664.82651730407
 34
0.0
 50
90.0
  0
DIMENSION
  8
1DIM
  2
*D451
 10
40573.40160987386
 20
-6814.82651730407
 11
40198.33787696248
 21
-6765.82651730407
 70
    32
 13
39823.27414405111
 23
-6664.82651730407
 33
0.0
 14
40573.40160987386
 24
-6664.82651730407
 34
0.0
  0
DIMENSION
  8
1DIM
  2
*D452
 10
40723.40160987386
 20
-6664.82651730407
 11
40674.40160987386
 21
-6268.95991357933
 70
    32
  1
790
 13
40573.40160987386
 23
-5873.093309854589
 33
0.0
 14
40573.40160987386
 24
-6664.82651730407
 34
0.0
 50
90.0
  0
DIMENSION
  8
1DIM
  2
*D453
 10
40323.49205468758
 20
-5723.093309854589
 11
40073.38309936934
 21
-5674.093309854589
 70
    32
 13
39823.27414405111
 23
-5873.093309854589
 33
0.0
 14
40323.49205468758
 24
-5873.093309854589
 34
0.0
  0
POLYLINE
  8
1HIDDEN
 66
     1
  0
VERTEX
  8
1HIDDEN
 10
40348.42134518462
 20
-6074.826543530112
 42
0.055797136271
  0
VERTEX
  8
1HIDDEN
 10
40308.4825749419
 20
-6244.953368798752
 42
0.343469805092
  0
VERTEX
  8
1HIDDEN
 10
40327.51899895302
 20
-6276.525480453475
  0
VERTEX
  8
1HIDDEN
 10
40399.40161136397
 20
-6304.118630102425
  0
VERTEX
  8
1HIDDEN
 10
40487.41859691731
 20
-6074.826543530114
  0
SEQEND
  8
1HIDDEN
  0
POLYLINE
  8
0
 66
     1
  0
VERTEX
  8
0
 10
39193.26192472925
 20
-6445.364318556879
 42
0.423289087827
  0
VERTEX
  8
0
 10
39188.26192472925
 20
-6440.364318556879
  0
VERTEX
  8
0
 10
38413.26192472925
 20
-6440.364318556879
  0
VERTEX
  8
0
 10
37638.26192472925
 20
-6440.364318556879
 42
0.423289087827
  0
VERTEX
  8
0
 10
37633.26192472925
 20
-6445.364318556879
  0
SEQEND
  8
0
  0
POLYLINE
  8
0
 66
     1
  0
VERTEX
  8
0
 10
37610.76192472925
 20
-6544.82651730407
  0
VERTEX
  8
0
 10
37590.76192472925
 20
-6664.82651730407
  0
VERTEX
  8
0
 10
37555.76192472925
 20
-6664.82651730407
  0
VERTEX
  8
0
 10
37555.76192472925
 20
-6544.82651730407
  0
SEQEND
  8
0
  0
POLYLINE
  8
0
 66
     1
  0
VERTEX
  8
0
 10
39193.26192472925
 20
-6544.826519986279
  0
VERTEX
  8
0
 10
39193.26192472925
 20
-6104.807606263615
 42
-0.414029480508
  0
VERTEX
  8
0
 10
39223.26191042414
 20
-6074.826543530114
  0
VERTEX
  8
0
 10
39308.26191876879
 20
-6074.826543530114
 42
-0.414215705803
  0
VERTEX
  8
0
 10
39323.26190446367
 20
-6089.826529224999
  0
VERTEX
  8
0
 10
39323.26190446367
 20
-6159.826522072442
 42
-0.414214593182
  0
VERTEX
  8
0
 10
39308.26191876879
 20
-6174.826507767327
  0
VERTEX
  8
0
 10
39298.26192830553
 20
-6174.826507767327
 42
0.414213957401
  0
VERTEX
  8
0
 10
39293.2619330739
 20
-6179.826502998955
  0
VERTEX
  8
0
 10
39293.2619330739
 20
-6539.82651730407
 42
-0.403132577708
  0
VERTEX
  8
0
 10
39288.26191876879
 20
-6544.826517304072
  0
VERTEX
  8
0
 10
38413.26192472925
 20
-6544.826517304066
  0
VERTEX
  8
0
 10
37538.2619306897
 20
-6544.826517304072
 42
-0.403132577708
  0
VERTEX
  8
0
 10
37533.2619163846
 20
-6539.82651730407
  0
VERTEX
  8
0
 10
37533.2619163846
 20
-6179.826502998955
 42
0.414213957401
  0
VERTEX
  8
0
 10
37528.26192115296
 20
-6174.826507767327
  0
VERTEX
  8
0
 10
37518.2619306897
 20
-6174.826507767327
 42
-0.414214593182
  0
VERTEX
  8
0
 10
37503.26194499483
 20
-6159.826522072442
  0
VERTEX
  8
0
 10
37503.26194499483
 20
-6089.826529224999
 42
-0.414215705803
  0
VERTEX
  8
0
 10
37518.2619306897
 20
-6074.826543530114
  0
VERTEX
  8
0
 10
37603.26193903435
 20
-6074.826543530114
 42
-0.414029480508
  0
VERTEX
  8
0
 10
37633.26192472925
 20
-6104.807606263615
  0
VERTEX
  8
0
 10
37633.26192472925
 20
-6544.826519986279
  0
SEQEND
  8
0
  0
POLYLINE
  8
0
 66
     1
  0
VERTEX
  8
0
 10
39215.76192472925
 20
-6544.82651730407
  0
VERTEX
  8
0
 10
39235.76192472925
 20
-6664.82651730407
  0
VERTEX
  8
0
 10
39270.76192472925
 20
-6664.82651730407
  0
VERTEX
  8
0
 10
39270.76192472925
 20
-6544.82651730407
  0
SEQEND
  8
0
  0
POLYLINE
  8
0
 66
     1
  0
VERTEX
  8
0
 10
38153.26192472925
 20
-6440.364318556879
  0
VERTEX
  8
0
 10
38153.26192472925
 20
-5918.341613417607
 42
-0.382740702949
  0
VERTEX
  8
0
 10
38190.49771250901
 20
-5879.110615768856
 42
-0.024120008461
  0
VERTEX
  8
0
 10
38314.81473753807
 20
-5873.093309854587
  0
VERTEX
  8
0
 10
38413.26192472925
 20
-5873.093309854587
  0
VERTEX
  8
0
 10
38511.70911192042
 20
-5873.093309854587
 42
-0.024120008461
  0
VERTEX
  8
0
 10
38636.02613694948
 20
-5879.110615768856
 42
-0.382740702949
  0
VERTEX
  8
0
 10
38673.26192472925
 20
-5918.341613417607
  0
VERTEX
  8
0
 10
38673.26192472925
 20
-6440.364318556879
  0
SEQEND
  8
0
  0
POLYLINE
  8
0
 66
     1
  0
VERTEX
  8
0
 10
39193.26192472925
 20
-6288.793305355087
 42
0.39347899968
  0
VERTEX
  8
0
 10
39179.33063047907
 20
-6273.831424857625
  0
VERTEX
  8
0
 10
39088.84012709895
 20
-6267.367817473335
 42
0.015875776438
  0
VERTEX
  8
0
 10
39022.41317341015
 20
-6264.838134035711
  0
VERTEX
  8
0
 10
38673.26192472925
 20
-6264.838134035711
  0
VERTEX
  8
0
 10
38413.26192472925
 20
-6264.826481790878
  0
VERTEX
  8
0
 10
38153.26192472925
 20
-6264.838134035711
  0
VERTEX
  8
0
 10
37804.11067604834
 20
-6264.838134035711
 42
0.015875776438
  0
VERTEX
  8
0
 10
37737.68372235954
 20
-6267.367817473335
  0
VERTEX
  8
0
 10
37647.19321897942
 20
-6273.831424857625
 42
0.39347899968
  0
VERTEX
  8
0
 10
37633.26192472924
 20
-6288.793305355087
  0
SEQEND
  8
0
  0
POLYLINE
  8
0
 66
     1
  0
VERTEX
  8
0
 10
38153.26192472923
 20
-5918.341613417607
 42
0.382740702949
  0
VERTEX
  8
0
 10
38116.02613694947
 20
-5879.11061576886
 42
0.024120008461
  0
VERTEX
  8
0
 10
37991.70911192041
 20
-5873.093309854587
  0
VERTEX
  8
0
 10
37794.81473753807
 20
-5873.093309854587
 42
0.024120008461
  0
VERTEX
  8
0
 10
37670.49771250901
 20
-5879.110615768856
 42
0.382740702949
  0
VERTEX
  8
0
 10
37633.26192472925
 20
-5918.341613417607
  0
VERTEX
  8
0
 10
37633.26192472925
 20
-6104.807606263615
  0
SEQEND
  8
0
  0
POLYLINE
  8
0
 66
     1
  0
VERTEX
  8
0
 10
39193.26192472925
 20
-6104.807606263615
  0
VERTEX
  8
0
 10
39193.26192472925
 20
-5918.341613417607
 42
0.382740702949
  0
VERTEX
  8
0
 10
39156.02613694948
 20
-5879.110615768856
 42
0.024120008461
  0
VERTEX
  8
0
 10
39031.70911192042
 20
-5873.093309854587
  0
VERTEX
  8
0
 10
38834.81473753809
 20
-5873.093309854587
 42
0.024120008461
  0
VERTEX
  8
0
 10
38710.49771250902
 20
-5879.110615768858
 42
0.382740702949
  0
VERTEX
  8
0
 10
38673.26192472926
 20
-5918.341613417607
  0
SEQEND
  8
0
  0
POLYLINE
  8
0
 66
     1
 70
   128
  0
VERTEX
  8
0
 10
38153.262024866
 20
-5009.198902092916
 42
-0.179078837852
  0
VERTEX
  8
0
 10
38125.41034319324
 20
-5023.093257293071
  0
VERTEX
  8
0
 10
37893.24276474966
 20
-5023.093257293071
  0
VERTEX
  8
0
 10
37661.07518630608
 20
-5023.093257293071
 42
-0.178755040988
  0
VERTEX
  8
0
 10
37633.26204393854
 20
-5009.23991780932
  0
SEQEND
  8
0
  0
POLYLINE
  8
0
 66
     1
 70
   128
  0
VERTEX
  8
0
 10
38153.26202486505
 20
-4800.867881675777
 42
0.07067417821
  0
VERTEX
  8
0
 10
38148.01809775501
 20
-4798.77112262234
 42
0.064536297267
  0
VERTEX
  8
0
 10
38123.2620332097
 20
-4795.787039042765
  0
VERTEX
  8
0
 10
37893.26203440181
 20
-4795.787039042765
  0
VERTEX
  8
0
 10
37663.26203559391
 20
-4795.787039042765
 42
0.064536297267
  0
VERTEX
  8
0
 10
37638.5059710486
 20
-4798.77112262234
 42
0.07067417821
  0
VERTEX
  8
0
 10
37633.26204393854
 20
-4800.867881675787
  0
SEQEND
  8
0
  0
LINE
  8
0
 10
38153.2620844697
 20
-4772.965791465098
 11
38153.26202486505
 21
-5518.064367414767
  0
POLYLINE
  8
0
 66
     1
  0
VERTEX
  8
0
 10
38153.26202486505
 20
-5518.064367414767
 42
-0.3780410446
  0
VERTEX
  8
0
 10
38148.26191042415
 20
-5523.093309854588
  0
VERTEX
  8
0
 10
37648.26191042415
 20
-5523.093309854588
 42
-0.41216889263
  0
VERTEX
  8
0
 10
37633.26204393854
 20
-5508.120199542916
  0
VERTEX
  8
0
 10
37633.26206929905
 20
-5497.965791465207
  0
SEQEND
  8
0
  0
POLYLINE
  8
0
 66
     1
 70
     1
  0
VERTEX
  8
0
 10
37633.26204393854
 20
-4777.950236359433
 42
-0.414712231619
  0
VERTEX
  8
0
 10
37638.26203917017
 20
-4772.965791465098
  0
VERTEX
  8
0
 10
38153.2619652604
 20
-4772.965791465098
  0
VERTEX
  8
0
 10
37638.26203917017
 20
-4772.965791465098
 42
0.414712231619
  0
VERTEX
  8
0
 10
37633.26204393854
 20
-4777.950236359433
  0
VERTEX
  8
0
 10
37633.26204393854
 20
-4782.755080597826
  0
SEQEND
  8
0
  0
POLYLINE
  8
0
 66
     1
 70
     1
  0
VERTEX
  8
0
 10
37623.26206929905
 20
-4772.965791465098
  0
VERTEX
  8
0
 10
37513.26202290918
 20
-4772.965791465098
 42
0.414293493256
  0
VERTEX
  8
0
 10
37503.26203847563
 20
-4782.965781928355
  0
VERTEX
  8
0
 10
37503.26206929905
 20
-5497.965791465098
 42
0.414212356538
  0
VERTEX
  8
0
 10
37513.26202893889
 20
-5507.96579180038
  0
VERTEX
  8
0
 10
37623.26206872652
 20
-5507.965791800383
 42
0.414213555421
  0
VERTEX
  8
0
 10
37633.26206929905
 20
-5497.965791465207
  0
VERTEX
  8
0
 10
37633.26204393854
 20
-4782.755080597826
 42
0.413579533597
  0
SEQEND
  8
0
  0
POLYLINE
  8
0
 66
     1
 70
   128
  0
VERTEX
  8
0
 10
38673.26188658322
 20
-5009.198902092912
 42
-0.179078837852
  0
VERTEX
  8
0
 10
38645.41020491045
 20
-5023.093257293069
  0
VERTEX
  8
0
 10
38413.24262646688
 20
-5023.093257293069
  0
VERTEX
  8
0
 10
38181.0750480233
 20
-5023.093257293069
 42
-0.178755040988
  0
VERTEX
  8
0
 10
38153.26190565576
 20
-5009.23991780932
  0
SEQEND
  8
0
  0
POLYLINE
  8
0
 66
     1
 70
   128
  0
VERTEX
  8
0
 10
38673.26188658227
 20
-4800.867881675775
 42
0.07067417821
  0
VERTEX
  8
0
 10
38668.01795947223
 20
-4798.771122622338
 42
0.064536297267
  0
VERTEX
  8
0
 10
38643.26189492692
 20
-4795.787039042762
  0
VERTEX
  8
0
 10
38413.26189611902
 20
-4795.787039042763
  0
VERTEX
  8
0
 10
38183.26189731113
 20
-4795.787039042762
 42
0.064536297267
  0
VERTEX
  8
0
 10
38158.50583276582
 20
-4798.771122622338
 42
0.07067417821
  0
VERTEX
  8
0
 10
38153.26190565576
 20
-4800.867881675787
  0
SEQEND
  8
0
  0
ARC
  8
0
 10
38158.26270893331
 20
-5518.092546439519
 40
5.000763462512444
 50
179.67713975164
 51
269.992107718778
  0
LINE
  8
0
 10
38158.26202009668
 20
-5523.093309854588
 11
38668.26177214136
 21
-5523.093309854588
  0
ARC
  8
0
 10
38668.26101707612
 20
-5518.092386579823
 40
5.000923331767654
 50
270.008650812872
 51
359.98942186659
  0
LINE
  8
0
 10
38158.26203402203
 20
-4772.966554892149
 11
38673.26196011226
 21
-4772.966554892149
  0
LINE
  8
0
 10
38673.26196011226
 20
-4772.966554892149
 11
38153.26208446964
 21
-4772.966554892149
  0
POLYLINE
  8
0
 66
     1
 70
   128
  0
VERTEX
  8
0
 10
38673.26176737205
 20
-5009.198902092916
 42
0.179078837852
  0
VERTEX
  8
0
 10
38701.11344904481
 20
-5023.093257293071
  0
VERTEX
  8
0
 10
38933.28102748839
 20
-5023.093257293071
  0
VERTEX
  8
0
 10
39165.44860593197
 20
-5023.093257293071
 42
0.178755040988
  0
VERTEX
  8
0
 10
39193.2617482995
 20
-5009.23991780932
  0
SEQEND
  8
0
  0
POLYLINE
  8
0
 66
     1
 70
   128
  0
VERTEX
  8
0
 10
38673.261767373
 20
-4800.867881675777
 42
-0.07067417821
  0
VERTEX
  8
0
 10
38678.50569448304
 20
-4798.77112262234
 42
-0.064536297267
  0
VERTEX
  8
0
 10
38703.26175902835
 20
-4795.787039042765
  0
VERTEX
  8
0
 10
38933.26175783624
 20
-4795.787039042765
  0
VERTEX
  8
0
 10
39163.26175664413
 20
-4795.787039042765
 42
-0.064536297267
  0
VERTEX
  8
0
 10
39188.01782118945
 20
-4798.77112262234
 42
-0.07067417821
  0
VERTEX
  8
0
 10
39193.2617482995
 20
-4800.867881675787
  0
SEQEND
  8
0
  0
LINE
  8
0
 10
38673.26170776835
 20
-4772.965791465098
 11
38673.261767373
 21
-5518.064367414767
  0
POLYLINE
  8
0
 66
     1
  0
VERTEX
  8
0
 10
38673.261767373
 20
-5518.064367414767
 42
0.3780410446
  0
VERTEX
  8
0
 10
38678.2618818139
 20
-5523.093309854588
  0
VERTEX
  8
0
 10
39178.2618818139
 20
-5523.093309854588
 42
0.41216889263
  0
VERTEX
  8
0
 10
39193.2617482995
 20
-5508.120199542916
  0
VERTEX
  8
0
 10
39193.26172293899
 20
-5497.965791465207
  0
SEQEND
  8
0
  0
POLYLINE
  8
0
 66
     1
 70
     1
  0
VERTEX
  8
0
 10
39193.2617482995
 20
-4777.950236359433
 42
0.414712231619
  0
VERTEX
  8
0
 10
39188.26175306788
 20
-4772.965791465098
  0
VERTEX
  8
0
 10
38673.26182697765
 20
-4772.965791465098
  0
VERTEX
  8
0
 10
39188.26175306788
 20
-4772.965791465098
 42
-0.414712231619
  0
VERTEX
  8
0
 10
39193.2617482995
 20
-4777.950236359433
  0
VERTEX
  8
0
 10
39193.2617482995
 20
-4782.755080597826
  0
SEQEND
  8
0
  0
POLYLINE
  8
0
 66
     1
 70
     1
  0
VERTEX
  8
0
 10
39203.26172293899
 20
-4772.965791465098
  0
VERTEX
  8
0
 10
39313.26176932886
 20
-4772.965791465098
 42
-0.414293493256
  0
VERTEX
  8
0
 10
39323.26175376242
 20
-4782.965781928355
  0
VERTEX
  8
0
 10
39323.26172293899
 20
-5497.965791465098
 42
-0.414212356538
  0
VERTEX
  8
0
 10
39313.26176329916
 20
-5507.96579180038
  0
VERTEX
  8
0
 10
39203.26172351152
 20
-5507.965791800383
 42
-0.414213555421
  0
VERTEX
  8
0
 10
39193.26172293899
 20
-5497.965791465207
  0
VERTEX
  8
0
 10
39193.2617482995
 20
-4782.755080597826
 42
-0.413579533597
  0
SEQEND
  8
0
  0
DIMENSION
  8
1DIM
  2
*D470
 10
39193.26192472925
 20
-5723.093309854589
 11
38413.26192472925
 21
-5674.093309854589
 70
    32
 13
37633.26192472925
 23
-5873.093309854589
 33
0.0
 14
39193.26192472925
 24
-5873.093309854589
 34
0.0
  0
DIMENSION
  8
1DIM
  2
*D471
 10
37353.26194499483
 20
-6664.82651730407
 11
37304.26194499483
 21
-6464.83232566989
 70
    32
 13
37503.26194499483
 23
-6264.838134035711
 33
0.0
 14
37503.26194499483
 24
-6664.82651730407
 34
0.0
 50
90.0
  0
DIMENSION
  8
1DIM
  2
*D472
 10
39323.26190446367
 20
-6814.82651730407
 11
38413.26192472925
 21
-6765.82651730407
 70
    32
 13
37503.26194499483
 23
-6664.82651730407
 33
0.0
 14
39323.26190446367
 24
-6664.82651730407
 34
0.0
  0
ENDSEC
  0
EOF
