  0
SECTION
  2
HEADER
  9
$ACADVER
  1
AC1004
  9
$INSBASE
 10
0.0
 20
0.0
  9
$EXTMIN
 10
38020.76190446367
 20
-6834.82651730407
  9
$EXTMAX
 10
40543.26190446367
 20
-5344.826517304072
  9
$LIMMIN
 10
0.0
 20
0.0
  9
$LIMMAX
 10
12.0
 20
9.0
  9
$ORTHOMODE
 70
     0
  9
$REGENMODE
 70
     1
  9
$FILLMODE
 70
     1
  9
$QTEXTMODE
 70
     0
  9
$DRAGMODE
 70
     2
  9
$LTSCALE
 40
0.5
  9
$OSMODE
 70
  2175
  9
$ATTMODE
 70
     1
  9
$TEXTSIZE
 40
4.0
  9
$TRACEWID
 40
0.05
  9
$TEXTSTYLE
  7
STANDARD
  9
$CLAYER
  8
0
  9
$CELTYPE
  6
BYLAYER
  9
$CECOLOR
 62
   256
  9
$DIMSCALE
 40
20.0
  9
$DIMASZ
 40
2.0
  9
$DIMEXO
 40
0.0
  9
$DIMDLI
 40
7.0
  9
$DIMRND
 40
0.0
  9
$DIMDLE
 40
0.0
  9
$DIMEXE
 40
1.0
  9
$DIMTP
 40
0.0
  9
$DIMTM
 40
0.0
  9
$DIMTXT
 40
3.5
  9
$DIMCEN
 40
0.0
  9
$DIMTSZ
 40
0.0
  9
$DIMTOL
 70
     0
  9
$DIMLIM
 70
     0
  9
$DIMTIH
 70
     0
  9
$DIMTOH
 70
     0
  9
$DIMSE1
 70
     0
  9
$DIMSE2
 70
     0
  9
$DIMTAD
 70
     1
  9
$DIMZIN
 70
     8
  9
$DIMBLK
  1

  9
$DIMASO
 70
     1
  9
$DIMSHO
 70
     1
  9
$DIMPOST
  1
 
  9
$DIMAPOST
  1

  9
$DIMALT
 70
     0
  9
$DIMALTD
 70
     2
  9
$DIMALTF
 40
25.4
  9
$DIMLFAC
 40
1.0
  9
$DIMTOFL
 70
     1
  9
$DIMTVP
 40
0.0
  9
$DIMTIX
 70
     0
  9
$DIMSOXD
 70
     0
  9
$DIMSAH
 70
     1
  9
$DIMBLK1
  1
OPEN30
  9
$DIMBLK2
  1
OPEN30
  9
$LUNITS
 70
     2
  9
$LUPREC
 70
     4
  9
$SKETCHINC
 40
0.1
  9
$FILLETRAD
 40
5.8
  9
$AUNITS
 70
     0
  9
$AUPREC
 70
     2
  9
$MENU
  1
acad
  9
$ELEVATION
 40
0.0
  9
$THICKNESS
 40
0.0
  9
$LIMCHECK
 70
     0
  9
$CHAMFERA
 40
0.0
  9
$CHAMFERB
 40
0.0
  9
$SKPOLY
 70
     0
  9
$TDCREATE
 40
2448750.487089225
  9
$TDUPDATE
 40
2459431.677003333
  9
$TDINDWG
 40
2.3791953125
  9
$TDUSRTIMER
 40
2.3791953125
  9
$USRTIMER
 70
     1
  9
$ANGBASE
 50
0.0
  9
$ANGDIR
 70
     0
  9
$PDMODE
 70
     0
  9
$PDSIZE
 40
0.0
  9
$PLINEWID
 40
1.0
  9
$COORDS
 70
     2
  9
$SPLFRAME
 70
     0
  9
$SPLINETYPE
 70
     6
  9
$SPLINESEGS
 70
     8
  9
$ATTDIA
 70
     0
  9
$ATTREQ
 70
     1
  9
$SURFTAB1
 70
     6
  9
$SURFTAB2
 70
     6
  9
$SURFTYPE
 70
     6
  9
$SURFU
 70
     6
  9
$SURFV
 70
     6
  9
$UCSNAME
  2

  9
$UCSORG
 10
0.0
 20
0.0
 30
0.0
  9
$UCSXDIR
 10
1.0
 20
0.0
 30
0.0
  9
$UCSYDIR
 10
0.0
 20
1.0
 30
0.0
  9
$USERI1
 70
     0
  9
$USERI2
 70
     0
  9
$USERI3
 70
     0
  9
$USERI4
 70
     0
  9
$USERI5
 70
     0
  9
$USERR1
 40
0.0
  9
$USERR2
 40
0.0
  9
$USERR3
 40
0.0
  9
$USERR4
 40
0.0
  9
$USERR5
 40
0.0
  9
$WORLDVIEW
 70
     1
  0
ENDSEC
  0
SECTION
  2
TABLES
  0
TABLE
  2
LTYPE
 70
    12
  0
LTYPE
  2
CONTINUOUS
 70
     0
  3
Solid line
 72
    65
 73
     0
 40
0.0
  0
LTYPE
  2
HIDDEN
 70
     0
  3
Hidden __ __ __ __ __ __ __ __ __ __ __ __ __ _
 72
    65
 73
     2
 40
9.525
 49
6.35
 49
-3.175
  0
LTYPE
  2
PHANTOM2
 70
     0
  3
Phantom (0.5x) ___ _ _ ___ _ _ ___ _ _ ___ _ _
 72
    65
 73
     6
 40
31.75
 49
15.875
 49
-3.175
 49
3.175
 49
-3.175
 49
3.175
 49
-3.175
  0
LTYPE
  2
CENTER2
 70
     0
  3
Center (.5x) ___ _ ___ _ ___ _ ___ _ ___ _ ___
 72
    65
 73
     4
 40
28.575
 49
19.05
 49
-3.175
 49
3.175
 49
-3.175
  0
LTYPE
  2
HADAN
 70
     0
  3
Hadansen
 72
    65
 73
     4
 40
58.0
 49
50.0
 49
-2.0
 49
-4.0
 49
-2.0
  0
LTYPE
  2
BATTING
 70
     0
  3
Batting SSSSSSSSSSSSSSSSSSSSSSSSSSSSSSSSSSSSSSS
 72
    65
 73
     4
 40
10.16254
 49
0.00254
 49
-2.54
 49
-5.08
 49
-2.54
  0
LTYPE
  2
DASHED2
 70
     0
  3
Dashed (0.5x) _ _ _ _ _ _ _ _ _ _ _ _ _ _ _ _ _
 72
    65
 73
     2
 40
9.525
 49
6.35
 49
-3.175
  0
LTYPE
  2
FENCELINE1
 70
     0
  3
Fenceline circle -0-----0----0-----0----0-----0
 72
    65
 73
     4
 40
36.83
 49
3.81
 49
-2.54
 49
-2.54
 49
27.94
  0
LTYPE
  2
FENCELINE2
 70
     0
  3
Fenceline square -[]-----[]----[]-----[]----[]-
 72
    65
 73
     4
 40
36.83
 49
3.81
 49
-2.54
 49
-2.54
 49
27.94
  0
LTYPE
  2
TRACKS
 70
     0
  3
Tracks -|-|-|-|-|-|-|-|-|-|-|-|-|-|-|-|-|-|-|-|
 72
    65
 73
     2
 40
7.62
 49
3.81
 49
3.81
  0
LTYPE
  2
ZIGZAG
 70
     0
  3
Zig zag /\/\/\/\/\/\/\/\/\/\/\/\/\/\/\/\/\/\/\/
 72
    65
 73
     4
 40
20.32254
 49
0.00254
 49
-5.08
 49
-10.16
 49
-5.08
  0
LTYPE
  2
BORDER2
 70
     0
  3
Border (0.5x) __.__.__.__.__.__.__.__.__.__.__.
 72
    65
 73
     6
 40
22.225
 49
6.35
 49
-3.175
 49
6.35
 49
-3.175
 49
0.0
 49
-3.175
  0
ENDTAB
  0
TABLE
  2
LAYER
 70
    38
  0
LAYER
  2
0
 70
     0
 62
     7
  6
CONTINUOUS
  0
LAYER
  2
1DIM
 70
     0
 62
     8
  6
CONTINUOUS
  0
LAYER
  2
2VIEWPORT
 70
     0
 62
    -1
  6
CONTINUOUS
  0
LAYER
  2
01
 70
     0
 62
     1
  6
CONTINUOUS
  0
LAYER
  2
DEFPOINTS
 70
     0
 62
     7
  6
CONTINUOUS
  0
LAYER
  2
1HIDDEN
 70
     0
 62
     8
  6
HIDDEN
  0
LAYER
  2
1PHANTOM
 70
     0
 62
   254
  6
PHANTOM2
  0
LAYER
  2
03
 70
     0
 62
     3
  6
CONTINUOUS
  0
LAYER
  2
02
 70
     0
 62
     2
  6
CONTINUOUS
  0
LAYER
  2
1TEXT
 70
     0
 62
   201
  6
CONTINUOUS
  0
LAYER
  2
04
 70
     0
 62
     4
  6
CONTINUOUS
  0
LAYER
  2
POINT
 70
     0
 62
     7
  6
CONTINUOUS
  0
LAYER
  2
1HATCH
 70
     0
 62
     8
  6
CONTINUOUS
  0
LAYER
  2
05
 70
     0
 62
     5
  6
CONTINUOUS
  0
LAYER
  2
06
 70
     0
 62
     6
  6
CONTINUOUS
  0
LAYER
  2
07
 70
     0
 62
   143
  6
CONTINUOUS
  0
LAYER
  2
08
 70
     0
 62
    95
  6
CONTINUOUS
  0
LAYER
  2
09
 70
     0
 62
    15
  6
CONTINUOUS
  0
LAYER
  2
10
 70
     0
 62
   213
  6
CONTINUOUS
  0
LAYER
  2
11
 70
     0
 62
     7
  6
CONTINUOUS
  0
LAYER
  2
1CENTER
 70
     0
 62
   221
  6
CONTINUOUS
  0
LAYER
  2
1DIM1
 70
     0
 62
   221
  6
CONTINUOUS
  0
LAYER
  2
1DIM2
 70
     0
 62
   254
  6
CONTINUOUS
  0
LAYER
  2
1DIM3
 70
     0
 62
     8
  6
CONTINUOUS
  0
LAYER
  2
2BATTING
 70
     0
 62
     7
  6
BATTING
  0
LAYER
  2
2FENCELINE1
 70
     0
 62
     7
  6
FENCELINE1
  0
LAYER
  2
2FENCELINE2
 70
     0
 62
     7
  6
FENCELINE2
  0
LAYER
  2
2TRACKS
 70
     0
 62
     7
  6
TRACKS
  0
LAYER
  2
2ZIGZAG
 70
     0
 62
     7
  6
ZIGZAG
  0
LAYER
  2
2HADAN
 70
     0
 62
     7
  6
HADAN
  0
LAYER
  2
1TEXT2
 70
     0
 62
   221
  6
CONTINUOUS
  0
LAYER
  2
99WAKU
 70
     0
 62
   253
  6
CONTINUOUS
  0
LAYER
  2
MIDFINE
 70
     0
 62
     9
  6
CONTINUOUS
  0
LAYER
  2
THICK
 70
     0
 62
   252
  6
CONTINUOUS
  0
LAYER
  2
ZZ
 70
     0
 62
    -8
  6
CONTINUOUS
  0
LAYER
  2
ZZXX
 70
     0
 62
   243
  6
CONTINUOUS
  0
LAYER
  2
MAKE2D$VISIBLE$LINES
 70
     0
 62
     7
  6
CONTINUOUS
  0
LAYER
  2
MAKE2D$VISIBLE$TANGENTS
 70
     0
 62
     7
  6
CONTINUOUS
  0
ENDTAB
  0
TABLE
  2
STYLE
 70
     4
  0
STYLE
  2
STANDARD
 70
     0
 40
0.0
 41
1.0
 50
0.0
 71
     0
 42
4.0
  3
romans.shx
  4
extfont2.shx
  0
STYLE
  2
KAI
 70
     0
 40
0.0
 41
1.0
 50
0.0
 71
     0
 42
4.0
  3
HGSeikaishotaiPRO.ttf
  4

  0
STYLE
  2

 70
     1
 40
0.2
 41
1.0
 50
0.0
 71
     0
 42
4.0
  3
ltypeshp.shx
  4

  0
STYLE
  2
TATE2
 70
     4
 40
0.0
 41
1.0
 50
0.0
 71
     0
 42
4.0
  3
romans.shx
  4
@extfont2.shx
  0
ENDTAB
  0
TABLE
  2
VIEW
 70
     0
  0
ENDTAB
  0
ENDSEC
  0
SECTION
  2
BLOCKS
  0
BLOCK
  8
0
  2
_OPEN30
 70
     0
 10
0.0
 20
0.0
  0
LINE
  8
0
  6
BYBLOCK
 62
     0
 10
-1.0
 20
0.26794919
 11
0.0
 21
0.0
  0
LINE
  8
0
  6
BYBLOCK
 62
     0
 10
0.0
 20
0.0
 11
-1.0
 21
-0.26794919
  0
LINE
  8
0
  6
BYBLOCK
 62
     0
 10
0.0
 20
0.0
 11
-1.0
 21
0.0
  0
ENDBLK
  8
0
  0
BLOCK
  8
0
  2
NOCIRCLE
 70
     2
 10
0.0
 20
0.0
  0
CIRCLE
  8
0
  6
BYBLOCK
 62
     0
 10
0.0
 20
0.0
 40
4.2
  0
ATTDEF
  8
1TEXT
 10
-1.904761904762
 20
-2.0
 40
4.0
  1
0
 72
     4
 11
0.0
 21
0.0
  3
NO.
  2
NO
 70
     0
  0
ENDBLK
  8
0
  0
BLOCK
  8
0
  2
_OPEN
 70
     0
 10
0.0
 20
0.0
  0
LINE
  8
0
  6
BYBLOCK
 62
     0
 10
-1.0
 20
0.166667
 11
0.0
 21
0.0
  0
LINE
  8
0
  6
BYBLOCK
 62
     0
 10
-1.0
 20
-0.166667
 11
0.0
 21
0.0
  0
LINE
  8
0
  6
BYBLOCK
 62
     0
 10
0.0
 20
0.0
 11
-1.0
 21
0.0
  0
ENDBLK
  8
0
  0
BLOCK
  8
0
  2
YA__
 70
     0
 10
0.0
 20
0.0
  0
INSERT
  8
0
  2
YA_
 10
0.0
 20
0.0
 30
0.0
 50
180.0
  0
ENDBLK
  8
0
  0
BLOCK
  8
0
  2
YA_
 70
     0
 10
0.0
 20
0.0
  0
LINE
  8
0
 10
-5.598760219962
 20
0.622116757674
 11
-2.488360049962
 21
0.622116757674
  0
LINE
  8
0
 10
-5.598760219962
 20
-0.622043242326
 11
-2.488359989962
 21
-0.622043242326
  0
LINE
  8
0
 10
-5.598760219962
 20
0.622116757674
 11
-5.598760219962
 21
-0.622043242326
  0
LINE
  8
0
 10
-2.488360079962
 20
1.346879757674
 11
-2.488360049962
 21
0.622116757674
  0
LINE
  8
0
 10
0.155480482306
 20
-1.993947296099
 11
0.155480380551
 21
1.993947304034
  0
LINE
  8
0
 10
-0.000039515118
 20
-1.99999999961
 11
-0.000039719246
 21
1.999999999606
  0
LINE
  8
0
 10
-0.155559515297
 20
-1.993941131829
 11
-0.155559619962
 21
0.000036757674
  0
LINE
  8
0
 10
-0.155559619962
 20
0.000036757674
 11
-0.155559718965
 21
1.99394111594
  0
LINE
  8
0
 10
-2.488359989962
 20
-0.622043242326
 11
-2.488359959962
 21
-1.346806242326
  0
LINE
  8
0
 10
-0.155559619962
 20
0.000036757674
 11
-2.488360199962
 21
-1.346806242326
  0
LINE
  8
0
 10
-0.155559619962
 20
0.000036757674
 11
-2.488360079962
 21
1.346879757674
  0
POINT
  8
POINT
 10
0.0
 20
0.0
 30
0.0
  0
ENDBLK
  8
0
  0
BLOCK
  8
0
  2
金属脚
 70
     0
 10
0.0
 20
0.0
  0
LINE
  8
0
  6
BYBLOCK
 62
     0
 10
0.0
 20
0.0
 11
125.0
 21
0.0
  0
LINE
  8
0
  6
BYBLOCK
 62
     0
 10
7.011342610203
 20
-155.999982357025
 11
23.011342610203
 21
-155.999982357025
  0
LINE
  8
0
  6
BYBLOCK
 62
     0
 10
7.011342610203
 20
-155.999982357025
 11
7.011342610203
 21
-145.999982357025
  0
LINE
  8
0
  6
BYBLOCK
 62
     0
 10
23.011342610203
 20
-155.999982357025
 11
23.011342610218
 21
-145.999982357025
  0
LINE
  8
0
  6
BYBLOCK
 62
     0
 10
4.0
 20
-145.999982357025
 11
22.0
 21
-145.999982357025
  0
LINE
  8
0
  6
BYBLOCK
 62
     0
 10
4.0
 20
-5.999982357025
 11
4.0
 21
-145.999982357025
  0
LINE
  8
0
  6
BYBLOCK
 62
     0
 10
22.0
 20
-5.999982357025
 11
104.0
 21
-5.999982357025
  0
LINE
  8
0
  6
BYBLOCK
 62
     0
 10
22.0
 20
-145.999982357025
 11
26.0
 21
-145.999982357025
  0
ARC
  8
0
  6
BYBLOCK
 62
     0
 10
31.0
 20
-32.999982357025
 40
5.0
 50
90.0
 51
180.0
  0
LINE
  8
0
  6
BYBLOCK
 62
     0
 10
26.0
 20
-145.999982357025
 11
26.0
 21
-32.999982357025
  0
LINE
  8
0
  6
BYBLOCK
 62
     0
 10
31.0
 20
-27.999982357025
 11
104.0
 21
-27.999982357025
  0
LINE
  8
0
  6
BYBLOCK
 62
     0
 10
104.0
 20
-27.999982357025
 11
104.0
 21
-5.999982357025
  0
LINE
  8
0
  6
BYBLOCK
 62
     0
 10
125.0
 20
-5.999982357025
 11
119.999885559082
 21
-5.999982357025
  0
LINE
  8
0
  6
BYBLOCK
 62
     0
 10
125.0
 20
-5.999982357025
 11
125.0
 21
0.0
  0
LINE
  8
0
  6
BYBLOCK
 62
     0
 10
119.999885559082
 20
-5.999982357025
 11
0.0
 21
-5.999982357025
  0
LINE
  8
0
  6
BYBLOCK
 62
     0
 10
0.0
 20
-5.999982357025
 11
0.0
 21
0.0
  0
ENDBLK
  8
0
  0
BLOCK
  8
0
  2
A-A
 70
     0
 10
0.0
 20
0.0
  0
LINE
  8
0
 10
0.0
 20
0.0
 11
53.759996799999
 21
0.0
  0
LINE
  8
0
 10
8.0321632
 20
10.63999856
 11
11.2933376
 21
1.68
  0
LINE
  8
0
 10
3.36
 20
1.68000624
 11
6.6211696
 21
10.63998944
  0
LINE
  8
0
 10
9.8630848
 20
1.68
 11
11.2933392
 21
1.68
  0
LINE
  8
0
 10
8.905750399999
 20
4.31024896
 11
9.8630848
 21
1.67999952
  0
LINE
  8
0
 10
4.7902528
 20
1.68000016
 11
5.7475856
 21
4.31024864
  0
LINE
  8
0
 10
3.36
 20
1.68
 11
4.7902528
 21
1.68
  0
LINE
  8
0
 10
5.7475856
 20
4.31024928
 11
8.905750399999
 21
4.31024928
  0
LINE
  8
0
 10
6.171791999999
 20
5.47574928
 11
8.4815424
 21
5.47574928
  0
LINE
  8
0
 10
6.171791999999
 20
5.4757488
 11
7.3266672
 21
8.64873968
  0
LINE
  8
0
 10
7.326668799999
 20
8.64873888
 11
8.481544
 21
5.4757488
  0
LINE
  8
0
 10
12.678397759999
 20
5.57759664
 11
16.441594239999
 21
5.57759664
  0
LINE
  8
0
 10
12.678397759999
 20
6.65279616
 11
16.441594239999
 21
6.65279616
  0
ARC
  8
0
 10
12.678397759999
 20
5.93599664
 40
0.3583999840000001
 50
179.99994
 51
270.0
  0
ARC
  8
0
 10
12.678397759999
 20
6.29439616
 40
0.3583999840000001
 50
90.0
 51
179.99994
  0
LINE
  8
0
 10
12.319997759999
 20
6.29439616
 11
12.319997759999
 21
5.93599664
  0
ARC
  8
0
 10
16.441594239999
 20
6.29439616
 40
0.3583999840000001
 50
0.0
 51
90.0
  0
ARC
  8
0
 10
16.441594239999
 20
5.93599664
 40
0.3583999840000001
 50
270.0
 51
0.0
  0
LINE
  8
0
 10
16.79999424
 20
6.29439616
 11
16.79999424
 21
5.93599664
  0
LINE
  8
0
 10
6.621172799999
 20
10.63999856
 11
8.0321632
 21
10.63999856
  0
LINE
  8
0
 10
25.952162927999
 20
10.63999936
 11
29.21333792
 21
1.68000064
  0
LINE
  8
0
 10
21.279999519999
 20
1.68000528
 11
24.541168639999
 21
10.639988
  0
LINE
  8
0
 10
23.667586079999
 20
4.31024928
 11
26.8257509616
 21
4.31024928
  0
LINE
  8
0
 10
22.7102536
 20
1.67999904
 11
23.667586559999
 21
4.31024784
  0
LINE
  8
0
 10
21.28000064
 20
1.68
 11
22.71025168
 21
1.68
  0
LINE
  8
0
 10
24.09179248
 20
5.47574928
 11
26.401542576
 21
5.47574928
  0
LINE
  8
0
 10
24.091794239999
 20
5.475748
 11
25.24666896
 21
8.64873888
  0
LINE
  8
0
 10
25.2466664
 20
8.64873968
 11
26.401541424
 21
5.475748
  0
LINE
  8
0
 10
26.8257489648
 20
4.31024816
 11
27.783081824
 21
1.67999952
  0
LINE
  8
0
 10
27.783083439999
 20
1.68
 11
29.21333888
 21
1.68
  0
POINT
  8
0
 10
26.8799984
 20
0.0
 30
0.0
  0
POINT
  8
0
 10
26.8799984
 20
0.0
 30
0.0
  0
LINE
  8
0
 10
24.541171999999
 20
10.63999856
 11
25.952163024
 21
10.63999856
  0
TEXT
  8
0
 10
35.978853279999
 20
1.99199984
 40
8.0
  1
断面
 41
0.8643459
  0
ENDBLK
  8
0
  0
BLOCK
  8
0
  2
AA
 70
     0
 10
0.0
 20
0.0
  0
LINE
  8
0
 10
0.000001680067
 20
0.00000565232
 11
2.9117599
 21
7.9999905
  0
LINE
  8
0
 10
3.5416694
 20
6.2220893
 11
4.5728078
 21
3.3890617
  0
LINE
  8
0
 10
2.5105312
 20
3.3890617
 11
3.5416694
 21
6.2220888
  0
LINE
  8
0
 10
4.171576
 20
7.999999
 11
7.0833392
 21
0.000000048888
  0
LINE
  8
0
 10
2.1317739
 20
2.3484368
 11
4.9515643
 21
2.3484368
  0
LINE
  8
0
 10
2.5105309
 20
3.3890619
 11
4.5728073
 21
3.3890619
  0
LINE
  8
0
 10
0.000001907349
 20
0.0
 11
1.2770123
 21
0.0
  0
POINT
  8
0
 10
0.0
 20
0.0
 30
0.0
  0
LINE
  8
0
 10
1.2770127
 20
-0.000000009364
 11
2.1317742
 21
2.3484364
  0
LINE
  8
0
 10
5.8063259
 20
0.0
 11
7.0833392
 21
0.0
  0
LINE
  8
0
 10
4.9515648
 20
2.3484368
 11
5.8063259
 21
0.000000268506
  0
LINE
  8
0
 10
2.9117632
 20
7.999999
 11
4.171576
 21
7.999999
  0
ENDBLK
  8
0
  0
BLOCK
  8
0
  2
訂正1
 70
     0
 10
0.0
 20
0.0
  0
LINE
  8
1HATCH
 10
0.000000135843
 20
2.025
 11
2.33826804
 21
-2.0250009
  0
LINE
  8
1HATCH
 10
-2.33826867
 20
-2.025
 11
2.33826849
 21
-2.025
  0
TEXT
  8
1TEXT
 10
-0.434499620191
 20
-1.510450886077
 40
1.8
  1
1
 41
0.66666667
 72
     1
 11
0.051214667951
 21
-1.510450886077
  0
LINE
  8
1HATCH
 10
0.000000476316
 20
2.02500018
 11
-2.33826849
 21
-2.02499937
  0
ENDBLK
  8
0
  0
BLOCK
  8
0
  2
*D413
 70
     1
 10
0.0
 20
0.0
  0
LINE
  8
1DIM
 10
38023.26190446367
 20
-6764.82651730407
 11
38023.26190446367
 21
-6834.82651730407
  0
LINE
  8
1DIM
 10
39323.26190446367
 20
-6764.82651730407
 11
39323.26190446367
 21
-6834.82651730407
  0
LINE
  8
1DIM
 10
38063.26190446367
 20
-6814.82651730407
 11
39283.26190446367
 21
-6814.82651730407
  0
INSERT
  8
1DIM
  2
_OPEN30
 10
38023.26190446367
 20
-6814.82651730407
 30
0.0
 41
40.0
 42
40.0
 43
40.0
 50
180.0
  0
INSERT
  8
1DIM
  2
_OPEN30
 10
39323.26190446367
 20
-6814.82651730407
 30
0.0
 41
40.0
 42
40.0
 43
40.0
  0
TEXT
  8
1DIM
  6
CONTINUOUS
 62
   201
 10
38534.92857113033
 20
-6800.82651730407
 40
70.0
  1
1300
  0
POINT
  8
DEFPOINTS
 62
     0
 10
38023.26190446367
 20
-6664.82651730407
 30
0.0
  0
POINT
  8
DEFPOINTS
 62
     0
 10
39323.26190446367
 20
-6664.82651730407
 30
0.0
  0
POINT
  8
DEFPOINTS
 62
     0
 10
39323.26190446367
 20
-6814.82651730407
 30
0.0
  0
ENDBLK
  8
0
  0
BLOCK
  8
0
  2
*D414
 70
     1
 10
0.0
 20
0.0
  0
LINE
  8
1DIM
 10
39823.26190446367
 20
-6764.82651730407
 11
39823.26190446367
 21
-6834.82651730407
  0
LINE
  8
1DIM
 10
40373.26190446367
 20
-6764.82651730407
 11
40373.26190446367
 21
-6834.82651730407
  0
LINE
  8
1DIM
 10
39863.26190446367
 20
-6814.82651730407
 11
40333.26190446367
 21
-6814.82651730407
  0
INSERT
  8
1DIM
  2
_OPEN30
 10
39823.26190446367
 20
-6814.82651730407
 30
0.0
 41
40.0
 42
40.0
 43
40.0
 50
180.0
  0
INSERT
  8
1DIM
  2
_OPEN30
 10
40373.26190446367
 20
-6814.82651730407
 30
0.0
 41
40.0
 42
40.0
 43
40.0
  0
TEXT
  8
1DIM
  6
CONTINUOUS
 62
   201
 10
39998.26190446367
 20
-6800.82651730407
 40
70.0
  1
550
  0
POINT
  8
DEFPOINTS
 62
     0
 10
39823.26190446367
 20
-6664.82651730407
 30
0.0
  0
POINT
  8
DEFPOINTS
 62
     0
 10
40373.26190446367
 20
-6664.82651730407
 30
0.0
  0
POINT
  8
DEFPOINTS
 62
     0
 10
40373.26190446367
 20
-6814.82651730407
 30
0.0
  0
ENDBLK
  8
0
  0
BLOCK
  8
0
  2
*D415
 70
     1
 10
0.0
 20
0.0
  0
LINE
  8
1DIM
 10
40473.26190446367
 20
-6664.82651730407
 11
40543.26190446367
 21
-6664.82651730407
  0
LINE
  8
1DIM
 10
40473.26190446367
 20
-6244.82651730407
 11
40543.26190446367
 21
-6244.82651730407
  0
LINE
  8
1DIM
 10
40523.26190446367
 20
-6624.82651730407
 11
40523.26190446367
 21
-6284.82651730407
  0
INSERT
  8
1DIM
  2
_OPEN30
 10
40523.26190446367
 20
-6664.82651730407
 30
0.0
 41
40.0
 42
40.0
 43
40.0
 50
270.0
  0
INSERT
  8
1DIM
  2
_OPEN30
 10
40523.26190446367
 20
-6244.82651730407
 30
0.0
 41
40.0
 42
40.0
 43
40.0
 50
90.0
  0
TEXT
  8
1DIM
  6
CONTINUOUS
 62
   201
 10
40509.26190446367
 20
-6554.826517304071
 40
70.0
  1
420
 50
90.0
  0
POINT
  8
DEFPOINTS
 62
     0
 10
40373.26190446367
 20
-6664.82651730407
 30
0.0
  0
POINT
  8
DEFPOINTS
 62
     0
 10
40373.26190446367
 20
-6244.82651730407
 30
0.0
  0
POINT
  8
DEFPOINTS
 62
     0
 10
40523.26190446367
 20
-6244.82651730407
 30
0.0
  0
ENDBLK
  8
0
  0
ENDSEC
  0
SECTION
  2
ENTITIES
  0
LINE
  8
1DIM
 10
39161.93722814514
 20
-5894.826517304074
 11
39323.26190446367
 21
-5733.501840985544
  0
LINE
  8
1DIM
 10
38992.23160066037
 20
-5894.826517304074
 11
39323.26190446367
 21
-5563.796213500773
  0
LINE
  8
1DIM
 10
38822.52597317559
 20
-5894.82651730407
 11
39323.26190446367
 21
-5394.090586015996
  0
LINE
  8
1DIM
 10
38652.82034569083
 20
-5894.826517304074
 11
39202.82034569082
 21
-5344.826517304072
  0
LINE
  8
1DIM
 10
38483.11471820605
 20
-5894.826517304074
 11
39033.11471820605
 21
-5344.826517304072
  0
LINE
  8
1DIM
 10
38313.40909072128
 20
-5894.826517304074
 11
38863.40909072128
 21
-5344.826517304072
  0
LINE
  8
1DIM
 10
38143.7034632365
 20
-5894.826517304074
 11
38693.7034632365
 21
-5344.826517304072
  0
LINE
  8
1DIM
 10
38023.26190446367
 20
-5845.56244859215
 11
38523.99783575175
 21
-5344.826517304072
  0
LINE
  8
1DIM
 10
38023.26190446367
 20
-5675.856821107377
 11
38354.29220826697
 21
-5344.826517304072
  0
LINE
  8
1DIM
 10
38023.26190446367
 20
-5506.151193622602
 11
38184.58658078219
 21
-5344.826517304072
  0
LINE
  8
1DIM
 10
39323.26190446367
 20
-5845.562448592146
 11
38822.52597317559
 21
-5344.826517304072
  0
LINE
  8
1DIM
 10
39202.82034569082
 20
-5894.826517304074
 11
38652.82034569082
 21
-5344.826517304072
  0
LINE
  8
1DIM
 10
39033.11471820605
 20
-5894.826517304074
 11
38483.11471820605
 21
-5344.826517304072
  0
LINE
  8
1DIM
 10
38863.40909072128
 20
-5894.826517304074
 11
38313.40909072128
 21
-5344.826517304072
  0
LINE
  8
1DIM
 10
38693.70346323651
 20
-5894.826517304074
 11
38143.70346323651
 21
-5344.826517304072
  0
LINE
  8
1DIM
 10
38523.99783575174
 20
-5894.82651730407
 11
38023.26190446367
 21
-5394.090586016002
  0
LINE
  8
1DIM
 10
38354.29220826697
 20
-5894.826517304074
 11
38023.26190446367
 21
-5563.79621350077
  0
LINE
  8
1DIM
 10
38184.58658078219
 20
-5894.826517304074
 11
38023.26190446367
 21
-5733.501840985544
  0
LINE
  8
1DIM
 10
39323.26190446367
 20
-5506.151193622593
 11
39161.93722814514
 21
-5344.826517304072
  0
LINE
  8
1DIM
 10
39323.26190446367
 20
-5675.856821107369
 11
38992.23160066037
 21
-5344.826517304072
  0
DIMENSION
  8
1DIM
  2
*D413
 10
39323.26190446367
 20
-6814.82651730407
 11
38673.26190446367
 21
-6765.82651730407
 70
    32
 13
38023.26190446367
 23
-6664.82651730407
 33
0.0
 14
39323.26190446367
 24
-6664.82651730407
 34
0.0
  0
DIMENSION
  8
1DIM
  2
*D414
 10
40373.26190446367
 20
-6814.82651730407
 11
40098.26190446367
 21
-6765.82651730407
 70
    32
 13
39823.26190446367
 23
-6664.82651730407
 33
0.0
 14
40373.26190446367
 24
-6664.82651730407
 34
0.0
  0
DIMENSION
  8
1DIM
  2
*D415
 10
40523.26190446367
 20
-6244.82651730407
 11
40474.26190446367
 21
-6454.82651730407
 70
    32
 13
40373.26190446367
 23
-6664.82651730407
 33
0.0
 14
40373.26190446367
 24
-6244.82651730407
 34
0.0
 50
90.0
  0
POLYLINE
  8
0
 66
     1
 70
     1
  0
VERTEX
  8
0
 10
39313.26190446367
 20
-5344.826517304074
  0
VERTEX
  8
0
 10
38033.26190446367
 20
-5344.826517304074
 42
0.414213562373
  0
VERTEX
  8
0
 10
38023.26190446367
 20
-5354.826517304074
  0
VERTEX
  8
0
 10
38023.26190446367
 20
-5884.826517304074
 42
0.414213562373
  0
VERTEX
  8
0
 10
38033.26190446367
 20
-5894.826517304074
  0
VERTEX
  8
0
 10
39313.26190446367
 20
-5894.826517304074
 42
0.414213562373
  0
VERTEX
  8
0
 10
39323.26190446367
 20
-5884.826517304074
  0
VERTEX
  8
0
 10
39323.26190446367
 20
-5354.826517304074
 42
0.414213562373
  0
SEQEND
  8
0
  0
POLYLINE
  8
0
 66
     1
  0
VERTEX
  8
0
 10
38023.26190446367
 20
-6314.82651730407
  0
VERTEX
  8
0
 10
38023.26190446367
 20
-6654.82651730407
  0
VERTEX
  8
0
 10
38063.26190446367
 20
-6654.82651730407
  0
VERTEX
  8
0
 10
38128.26321418834
 20
-6412.238326853044
 42
-0.339454258863
  0
VERTEX
  8
0
 10
38137.92247245124
 20
-6404.826517304068
  0
VERTEX
  8
0
 10
39208.60133647609
 20
-6404.826517304068
 42
-0.339454258863
  0
VERTEX
  8
0
 10
39218.26059473898
 20
-6412.238326853039
  0
VERTEX
  8
0
 10
39283.26190446367
 20
-6654.82651730407
  0
VERTEX
  8
0
 10
39323.26190446367
 20
-6654.82651730407
  0
VERTEX
  8
0
 10
39323.26190446367
 20
-6314.82651730407
  0
SEQEND
  8
0
  0
POLYLINE
  8
0
 66
     1
  0
VERTEX
  8
0
 10
39323.26190446367
 20
-6309.82651730407
  0
VERTEX
  8
0
 10
39323.26190446367
 20
-6254.82651730407
 42
0.414213562373
  0
VERTEX
  8
0
 10
39313.26190446367
 20
-6244.82651730407
  0
VERTEX
  8
0
 10
38033.26190446367
 20
-6244.826517304068
 42
0.414213562373
  0
VERTEX
  8
0
 10
38023.26190446367
 20
-6254.82651730407
  0
VERTEX
  8
0
 10
38023.26190446367
 20
-6309.82651730407
  0
SEQEND
  8
0
  0
POLYLINE
  8
0
 66
     1
 70
     1
  0
VERTEX
  8
0
 10
39323.26190446367
 20
-6309.82651730407
  0
VERTEX
  8
0
 10
38023.26190446367
 20
-6309.82651730407
 42
1.0
  0
VERTEX
  8
0
 10
38023.26190446367
 20
-6314.82651730407
  0
VERTEX
  8
0
 10
39323.26190446367
 20
-6314.82651730407
 42
1.0
  0
SEQEND
  8
0
  0
POLYLINE
  8
0
 62
     3
 66
     1
  0
VERTEX
  8
0
 62
     3
 10
39316.26190446367
 20
-6654.82651730407
  0
VERTEX
  8
0
 62
     3
 10
39316.26190446367
 20
-6664.82651730407
  0
VERTEX
  8
0
 62
     3
 10
39290.26190446367
 20
-6664.82651730407
  0
VERTEX
  8
0
 62
     3
 10
39290.26190446367
 20
-6654.82651730407
  0
SEQEND
  8
0
 62
     3
  0
POLYLINE
  8
0
 62
     3
 66
     1
  0
VERTEX
  8
0
 62
     3
 10
38056.26190446366
 20
-6654.82651730407
  0
VERTEX
  8
0
 62
     3
 10
38056.26190446366
 20
-6664.82651730407
  0
VERTEX
  8
0
 62
     3
 10
38030.26190446367
 20
-6664.82651730407
  0
VERTEX
  8
0
 62
     3
 10
38030.26190446367
 20
-6654.82651730407
  0
SEQEND
  8
0
 62
     3
  0
POLYLINE
  8
0
 66
     1
 70
     1
  0
VERTEX
  8
0
 10
39823.26190446367
 20
-6314.82651730407
  0
VERTEX
  8
0
 10
40373.26190446367
 20
-6314.82651730407
 42
1.0
  0
VERTEX
  8
0
 10
40373.26190446367
 20
-6309.82651730407
  0
VERTEX
  8
0
 10
39823.26190446367
 20
-6309.82651730407
 42
1.0
  0
SEQEND
  8
0
  0
POLYLINE
  8
0
 66
     1
  0
VERTEX
  8
0
 10
40373.26190446367
 20
-6309.82651730407
  0
VERTEX
  8
0
 10
40373.26190446367
 20
-6254.82651730407
 42
0.414213562373
  0
VERTEX
  8
0
 10
40363.26190446367
 20
-6244.826517304068
  0
VERTEX
  8
0
 10
39833.26190446367
 20
-6244.82651730407
 42
0.414213562373
  0
VERTEX
  8
0
 10
39823.26190446367
 20
-6254.82651730407
  0
VERTEX
  8
0
 10
39823.26190446367
 20
-6309.82651730407
  0
SEQEND
  8
0
  0
POLYLINE
  8
0
 66
     1
  0
VERTEX
  8
0
 10
40373.26190446367
 20
-6314.82651730407
  0
VERTEX
  8
0
 10
40373.26190446367
 20
-6654.82651730407
  0
VERTEX
  8
0
 10
39823.26190446367
 20
-6654.82651730407
  0
VERTEX
  8
0
 10
39823.26190446367
 20
-6314.82651730407
  0
SEQEND
  8
0
  0
POLYLINE
  8
0
 62
     3
 66
     1
  0
VERTEX
  8
0
 62
     3
 10
39866.26190446367
 20
-6654.82651730407
  0
VERTEX
  8
0
 62
     3
 10
39866.26190446367
 20
-6664.82651730407
  0
VERTEX
  8
0
 62
     3
 10
39840.26190446367
 20
-6664.82651730407
  0
VERTEX
  8
0
 62
     3
 10
39840.26190446367
 20
-6654.82651730407
  0
SEQEND
  8
0
 62
     3
  0
POLYLINE
  8
0
 62
     3
 66
     1
  0
VERTEX
  8
0
 62
     3
 10
40330.26190446367
 20
-6654.82651730407
  0
VERTEX
  8
0
 62
     3
 10
40330.26190446367
 20
-6664.82651730407
  0
VERTEX
  8
0
 62
     3
 10
40356.26190446367
 20
-6664.82651730407
  0
VERTEX
  8
0
 62
     3
 10
40356.26190446367
 20
-6654.82651730407
  0
SEQEND
  8
0
 62
     3
  0
ENDSEC
  0
EOF
