  0
SECTION
  2
HEADER
  9
$ACADVER
  1
AC1004
  9
$INSBASE
 10
0.0
 20
0.0
  9
$EXTMIN
 10
38512.26189373483
 20
-6834.82651730407
  9
$EXTMAX
 10
40696.03284170564
 20
-4854.027878241732
  9
$LIMMIN
 10
0.0
 20
0.0
  9
$LIMMAX
 10
12.0
 20
9.0
  9
$ORTHOMODE
 70
     0
  9
$REGENMODE
 70
     1
  9
$FILLMODE
 70
     1
  9
$QTEXTMODE
 70
     0
  9
$DRAGMODE
 70
     2
  9
$LTSCALE
 40
0.5
  9
$OSMODE
 70
  2175
  9
$ATTMODE
 70
     1
  9
$TEXTSIZE
 40
4.0
  9
$TRACEWID
 40
0.05
  9
$TEXTSTYLE
  7
STANDARD
  9
$CLAYER
  8
0
  9
$CELTYPE
  6
BYLAYER
  9
$CECOLOR
 62
   256
  9
$DIMSCALE
 40
20.0
  9
$DIMASZ
 40
2.0
  9
$DIMEXO
 40
0.0
  9
$DIMDLI
 40
7.0
  9
$DIMRND
 40
0.0
  9
$DIMDLE
 40
0.0
  9
$DIMEXE
 40
1.0
  9
$DIMTP
 40
0.0
  9
$DIMTM
 40
0.0
  9
$DIMTXT
 40
3.5
  9
$DIMCEN
 40
0.0
  9
$DIMTSZ
 40
0.0
  9
$DIMTOL
 70
     0
  9
$DIMLIM
 70
     0
  9
$DIMTIH
 70
     0
  9
$DIMTOH
 70
     0
  9
$DIMSE1
 70
     0
  9
$DIMSE2
 70
     0
  9
$DIMTAD
 70
     1
  9
$DIMZIN
 70
     8
  9
$DIMBLK
  1

  9
$DIMASO
 70
     1
  9
$DIMSHO
 70
     1
  9
$DIMPOST
  1
 
  9
$DIMAPOST
  1

  9
$DIMALT
 70
     0
  9
$DIMALTD
 70
     2
  9
$DIMALTF
 40
25.4
  9
$DIMLFAC
 40
1.0
  9
$DIMTOFL
 70
     1
  9
$DIMTVP
 40
0.0
  9
$DIMTIX
 70
     0
  9
$DIMSOXD
 70
     0
  9
$DIMSAH
 70
     1
  9
$DIMBLK1
  1
OPEN30
  9
$DIMBLK2
  1
OPEN30
  9
$LUNITS
 70
     2
  9
$LUPREC
 70
     4
  9
$SKETCHINC
 40
0.1
  9
$FILLETRAD
 40
5.8
  9
$AUNITS
 70
     0
  9
$AUPREC
 70
     2
  9
$MENU
  1
acad
  9
$ELEVATION
 40
0.0
  9
$THICKNESS
 40
0.0
  9
$LIMCHECK
 70
     0
  9
$CHAMFERA
 40
0.0
  9
$CHAMFERB
 40
0.0
  9
$SKPOLY
 70
     0
  9
$TDCREATE
 40
2448750.487089225
  9
$TDUPDATE
 40
2459428.669351829
  9
$TDINDWG
 40
2.4391985069
  9
$TDUSRTIMER
 40
2.4391985069
  9
$USRTIMER
 70
     1
  9
$ANGBASE
 50
0.0
  9
$ANGDIR
 70
     0
  9
$PDMODE
 70
     0
  9
$PDSIZE
 40
0.0
  9
$PLINEWID
 40
1.0
  9
$COORDS
 70
     2
  9
$SPLFRAME
 70
     0
  9
$SPLINETYPE
 70
     6
  9
$SPLINESEGS
 70
     8
  9
$ATTDIA
 70
     0
  9
$ATTREQ
 70
     1
  9
$SURFTAB1
 70
     6
  9
$SURFTAB2
 70
     6
  9
$SURFTYPE
 70
     6
  9
$SURFU
 70
     6
  9
$SURFV
 70
     6
  9
$UCSNAME
  2

  9
$UCSORG
 10
0.0
 20
0.0
 30
0.0
  9
$UCSXDIR
 10
1.0
 20
0.0
 30
0.0
  9
$UCSYDIR
 10
0.0
 20
1.0
 30
0.0
  9
$USERI1
 70
     0
  9
$USERI2
 70
     0
  9
$USERI3
 70
     0
  9
$USERI4
 70
     0
  9
$USERI5
 70
     0
  9
$USERR1
 40
0.0
  9
$USERR2
 40
0.0
  9
$USERR3
 40
0.0
  9
$USERR4
 40
0.0
  9
$USERR5
 40
0.0
  9
$WORLDVIEW
 70
     1
  0
ENDSEC
  0
SECTION
  2
TABLES
  0
TABLE
  2
LTYPE
 70
    12
  0
LTYPE
  2
CONTINUOUS
 70
     0
  3
Solid line
 72
    65
 73
     0
 40
0.0
  0
LTYPE
  2
HIDDEN
 70
     0
  3
Hidden __ __ __ __ __ __ __ __ __ __ __ __ __ _
 72
    65
 73
     2
 40
9.525
 49
6.35
 49
-3.175
  0
LTYPE
  2
PHANTOM2
 70
     0
  3
Phantom (0.5x) ___ _ _ ___ _ _ ___ _ _ ___ _ _
 72
    65
 73
     6
 40
31.75
 49
15.875
 49
-3.175
 49
3.175
 49
-3.175
 49
3.175
 49
-3.175
  0
LTYPE
  2
CENTER2
 70
     0
  3
Center (.5x) ___ _ ___ _ ___ _ ___ _ ___ _ ___
 72
    65
 73
     4
 40
28.575
 49
19.05
 49
-3.175
 49
3.175
 49
-3.175
  0
LTYPE
  2
HADAN
 70
     0
  3
Hadansen
 72
    65
 73
     4
 40
58.0
 49
50.0
 49
-2.0
 49
-4.0
 49
-2.0
  0
LTYPE
  2
BATTING
 70
     0
  3
Batting SSSSSSSSSSSSSSSSSSSSSSSSSSSSSSSSSSSSSSS
 72
    65
 73
     4
 40
10.16254
 49
0.00254
 49
-2.54
 49
-5.08
 49
-2.54
  0
LTYPE
  2
DASHED2
 70
     0
  3
Dashed (0.5x) _ _ _ _ _ _ _ _ _ _ _ _ _ _ _ _ _
 72
    65
 73
     2
 40
9.525
 49
6.35
 49
-3.175
  0
LTYPE
  2
FENCELINE1
 70
     0
  3
Fenceline circle -0-----0----0-----0----0-----0
 72
    65
 73
     4
 40
36.83
 49
3.81
 49
-2.54
 49
-2.54
 49
27.94
  0
LTYPE
  2
FENCELINE2
 70
     0
  3
Fenceline square -[]-----[]----[]-----[]----[]-
 72
    65
 73
     4
 40
36.83
 49
3.81
 49
-2.54
 49
-2.54
 49
27.94
  0
LTYPE
  2
TRACKS
 70
     0
  3
Tracks -|-|-|-|-|-|-|-|-|-|-|-|-|-|-|-|-|-|-|-|
 72
    65
 73
     2
 40
7.62
 49
3.81
 49
3.81
  0
LTYPE
  2
ZIGZAG
 70
     0
  3
Zig zag /\/\/\/\/\/\/\/\/\/\/\/\/\/\/\/\/\/\/\/
 72
    65
 73
     4
 40
20.32254
 49
0.00254
 49
-5.08
 49
-10.16
 49
-5.08
  0
LTYPE
  2
BORDER2
 70
     0
  3
Border (0.5x) __.__.__.__.__.__.__.__.__.__.__.
 72
    65
 73
     6
 40
22.225
 49
6.35
 49
-3.175
 49
6.35
 49
-3.175
 49
0.0
 49
-3.175
  0
ENDTAB
  0
TABLE
  2
LAYER
 70
    38
  0
LAYER
  2
0
 70
     0
 62
     7
  6
CONTINUOUS
  0
LAYER
  2
1DIM
 70
     0
 62
     8
  6
CONTINUOUS
  0
LAYER
  2
2VIEWPORT
 70
     0
 62
    -1
  6
CONTINUOUS
  0
LAYER
  2
01
 70
     0
 62
     1
  6
CONTINUOUS
  0
LAYER
  2
DEFPOINTS
 70
     0
 62
     7
  6
CONTINUOUS
  0
LAYER
  2
1HIDDEN
 70
     0
 62
     8
  6
HIDDEN
  0
LAYER
  2
1PHANTOM
 70
     0
 62
   254
  6
PHANTOM2
  0
LAYER
  2
03
 70
     0
 62
     3
  6
CONTINUOUS
  0
LAYER
  2
02
 70
     0
 62
     2
  6
CONTINUOUS
  0
LAYER
  2
1TEXT
 70
     0
 62
   201
  6
CONTINUOUS
  0
LAYER
  2
04
 70
     0
 62
     4
  6
CONTINUOUS
  0
LAYER
  2
POINT
 70
     0
 62
     7
  6
CONTINUOUS
  0
LAYER
  2
1HATCH
 70
     0
 62
     8
  6
CONTINUOUS
  0
LAYER
  2
05
 70
     0
 62
     5
  6
CONTINUOUS
  0
LAYER
  2
06
 70
     0
 62
     6
  6
CONTINUOUS
  0
LAYER
  2
07
 70
     0
 62
   143
  6
CONTINUOUS
  0
LAYER
  2
08
 70
     0
 62
    95
  6
CONTINUOUS
  0
LAYER
  2
09
 70
     0
 62
    15
  6
CONTINUOUS
  0
LAYER
  2
10
 70
     0
 62
   213
  6
CONTINUOUS
  0
LAYER
  2
11
 70
     0
 62
     7
  6
CONTINUOUS
  0
LAYER
  2
1CENTER
 70
     0
 62
   221
  6
CONTINUOUS
  0
LAYER
  2
1DIM1
 70
     0
 62
   221
  6
CONTINUOUS
  0
LAYER
  2
1DIM2
 70
     0
 62
   254
  6
CONTINUOUS
  0
LAYER
  2
1DIM3
 70
     0
 62
     8
  6
CONTINUOUS
  0
LAYER
  2
2BATTING
 70
     0
 62
     7
  6
BATTING
  0
LAYER
  2
2FENCELINE1
 70
     0
 62
     7
  6
FENCELINE1
  0
LAYER
  2
2FENCELINE2
 70
     0
 62
     7
  6
FENCELINE2
  0
LAYER
  2
2TRACKS
 70
     0
 62
     7
  6
TRACKS
  0
LAYER
  2
2ZIGZAG
 70
     0
 62
     7
  6
ZIGZAG
  0
LAYER
  2
2HADAN
 70
     0
 62
     7
  6
HADAN
  0
LAYER
  2
1TEXT2
 70
     0
 62
   221
  6
CONTINUOUS
  0
LAYER
  2
99WAKU
 70
     0
 62
   253
  6
CONTINUOUS
  0
LAYER
  2
MIDFINE
 70
     0
 62
     9
  6
CONTINUOUS
  0
LAYER
  2
THICK
 70
     0
 62
   252
  6
CONTINUOUS
  0
LAYER
  2
ZZ
 70
     0
 62
    -8
  6
CONTINUOUS
  0
LAYER
  2
ZZXX
 70
     0
 62
   243
  6
CONTINUOUS
  0
LAYER
  2
MAKE2D$VISIBLE$LINES
 70
     0
 62
     7
  6
CONTINUOUS
  0
LAYER
  2
MAKE2D$VISIBLE$TANGENTS
 70
     0
 62
     7
  6
CONTINUOUS
  0
ENDTAB
  0
TABLE
  2
STYLE
 70
     4
  0
STYLE
  2
STANDARD
 70
     0
 40
0.0
 41
1.0
 50
0.0
 71
     0
 42
4.0
  3
romans.shx
  4
extfont2.shx
  0
STYLE
  2
KAI
 70
     0
 40
0.0
 41
1.0
 50
0.0
 71
     0
 42
4.0
  3
HGSeikaishotaiPRO.ttf
  4

  0
STYLE
  2

 70
     1
 40
0.2
 41
1.0
 50
0.0
 71
     0
 42
4.0
  3
ltypeshp.shx
  4

  0
STYLE
  2
TATE2
 70
     4
 40
0.0
 41
1.0
 50
0.0
 71
     0
 42
4.0
  3
romans.shx
  4
@extfont2.shx
  0
ENDTAB
  0
TABLE
  2
VIEW
 70
     0
  0
ENDTAB
  0
ENDSEC
  0
SECTION
  2
BLOCKS
  0
BLOCK
  8
0
  2
_OPEN30
 70
     0
 10
0.0
 20
0.0
  0
LINE
  8
0
  6
BYBLOCK
 62
     0
 10
-1.0
 20
0.26794919
 11
0.0
 21
0.0
  0
LINE
  8
0
  6
BYBLOCK
 62
     0
 10
0.0
 20
0.0
 11
-1.0
 21
-0.26794919
  0
LINE
  8
0
  6
BYBLOCK
 62
     0
 10
0.0
 20
0.0
 11
-1.0
 21
0.0
  0
ENDBLK
  8
0
  0
BLOCK
  8
0
  2
NOCIRCLE
 70
     2
 10
0.0
 20
0.0
  0
CIRCLE
  8
0
  6
BYBLOCK
 62
     0
 10
0.0
 20
0.0
 40
4.2
  0
ATTDEF
  8
1TEXT
 10
-1.904761904762
 20
-2.0
 40
4.0
  1
0
 72
     4
 11
0.0
 21
0.0
  3
NO.
  2
NO
 70
     0
  0
ENDBLK
  8
0
  0
BLOCK
  8
0
  2
_OPEN
 70
     0
 10
0.0
 20
0.0
  0
LINE
  8
0
  6
BYBLOCK
 62
     0
 10
-1.0
 20
0.166667
 11
0.0
 21
0.0
  0
LINE
  8
0
  6
BYBLOCK
 62
     0
 10
-1.0
 20
-0.166667
 11
0.0
 21
0.0
  0
LINE
  8
0
  6
BYBLOCK
 62
     0
 10
0.0
 20
0.0
 11
-1.0
 21
0.0
  0
ENDBLK
  8
0
  0
BLOCK
  8
0
  2
YA__
 70
     0
 10
0.0
 20
0.0
  0
INSERT
  8
0
  2
YA_
 10
0.0
 20
0.0
 30
0.0
 50
180.0
  0
ENDBLK
  8
0
  0
BLOCK
  8
0
  2
YA_
 70
     0
 10
0.0
 20
0.0
  0
LINE
  8
0
 10
-5.598760219962
 20
0.622116757674
 11
-2.488360049962
 21
0.622116757674
  0
LINE
  8
0
 10
-5.598760219962
 20
-0.622043242326
 11
-2.488359989962
 21
-0.622043242326
  0
LINE
  8
0
 10
-5.598760219962
 20
0.622116757674
 11
-5.598760219962
 21
-0.622043242326
  0
LINE
  8
0
 10
-2.488360079962
 20
1.346879757674
 11
-2.488360049962
 21
0.622116757674
  0
LINE
  8
0
 10
0.155480482306
 20
-1.993947296099
 11
0.155480380551
 21
1.993947304034
  0
LINE
  8
0
 10
-0.000039515118
 20
-1.99999999961
 11
-0.000039719246
 21
1.999999999606
  0
LINE
  8
0
 10
-0.155559515297
 20
-1.993941131829
 11
-0.155559619962
 21
0.000036757674
  0
LINE
  8
0
 10
-0.155559619962
 20
0.000036757674
 11
-0.155559718965
 21
1.99394111594
  0
LINE
  8
0
 10
-2.488359989962
 20
-0.622043242326
 11
-2.488359959962
 21
-1.346806242326
  0
LINE
  8
0
 10
-0.155559619962
 20
0.000036757674
 11
-2.488360199962
 21
-1.346806242326
  0
LINE
  8
0
 10
-0.155559619962
 20
0.000036757674
 11
-2.488360079962
 21
1.346879757674
  0
POINT
  8
POINT
 10
0.0
 20
0.0
 30
0.0
  0
ENDBLK
  8
0
  0
BLOCK
  8
0
  2
金属脚
 70
     0
 10
0.0
 20
0.0
  0
LINE
  8
0
  6
BYBLOCK
 62
     0
 10
0.0
 20
0.0
 11
125.0
 21
0.0
  0
LINE
  8
0
  6
BYBLOCK
 62
     0
 10
7.011342610203
 20
-155.999982357025
 11
23.011342610203
 21
-155.999982357025
  0
LINE
  8
0
  6
BYBLOCK
 62
     0
 10
7.011342610203
 20
-155.999982357025
 11
7.011342610203
 21
-145.999982357025
  0
LINE
  8
0
  6
BYBLOCK
 62
     0
 10
23.011342610203
 20
-155.999982357025
 11
23.011342610218
 21
-145.999982357025
  0
LINE
  8
0
  6
BYBLOCK
 62
     0
 10
4.0
 20
-145.999982357025
 11
22.0
 21
-145.999982357025
  0
LINE
  8
0
  6
BYBLOCK
 62
     0
 10
4.0
 20
-5.999982357025
 11
4.0
 21
-145.999982357025
  0
LINE
  8
0
  6
BYBLOCK
 62
     0
 10
22.0
 20
-5.999982357025
 11
104.0
 21
-5.999982357025
  0
LINE
  8
0
  6
BYBLOCK
 62
     0
 10
22.0
 20
-145.999982357025
 11
26.0
 21
-145.999982357025
  0
ARC
  8
0
  6
BYBLOCK
 62
     0
 10
31.0
 20
-32.999982357025
 40
5.0
 50
90.0
 51
180.0
  0
LINE
  8
0
  6
BYBLOCK
 62
     0
 10
26.0
 20
-145.999982357025
 11
26.0
 21
-32.999982357025
  0
LINE
  8
0
  6
BYBLOCK
 62
     0
 10
31.0
 20
-27.999982357025
 11
104.0
 21
-27.999982357025
  0
LINE
  8
0
  6
BYBLOCK
 62
     0
 10
104.0
 20
-27.999982357025
 11
104.0
 21
-5.999982357025
  0
LINE
  8
0
  6
BYBLOCK
 62
     0
 10
125.0
 20
-5.999982357025
 11
119.999885559082
 21
-5.999982357025
  0
LINE
  8
0
  6
BYBLOCK
 62
     0
 10
125.0
 20
-5.999982357025
 11
125.0
 21
0.0
  0
LINE
  8
0
  6
BYBLOCK
 62
     0
 10
119.999885559082
 20
-5.999982357025
 11
0.0
 21
-5.999982357025
  0
LINE
  8
0
  6
BYBLOCK
 62
     0
 10
0.0
 20
-5.999982357025
 11
0.0
 21
0.0
  0
ENDBLK
  8
0
  0
BLOCK
  8
0
  2
A-A
 70
     0
 10
0.0
 20
0.0
  0
LINE
  8
0
 10
0.0
 20
0.0
 11
53.759996799999
 21
0.0
  0
LINE
  8
0
 10
8.0321632
 20
10.63999856
 11
11.2933376
 21
1.68
  0
LINE
  8
0
 10
3.36
 20
1.68000624
 11
6.6211696
 21
10.63998944
  0
LINE
  8
0
 10
9.8630848
 20
1.68
 11
11.2933392
 21
1.68
  0
LINE
  8
0
 10
8.905750399999
 20
4.31024896
 11
9.8630848
 21
1.67999952
  0
LINE
  8
0
 10
4.7902528
 20
1.68000016
 11
5.7475856
 21
4.31024864
  0
LINE
  8
0
 10
3.36
 20
1.68
 11
4.7902528
 21
1.68
  0
LINE
  8
0
 10
5.7475856
 20
4.31024928
 11
8.905750399999
 21
4.31024928
  0
LINE
  8
0
 10
6.171791999999
 20
5.47574928
 11
8.4815424
 21
5.47574928
  0
LINE
  8
0
 10
6.171791999999
 20
5.4757488
 11
7.3266672
 21
8.64873968
  0
LINE
  8
0
 10
7.326668799999
 20
8.64873888
 11
8.481544
 21
5.4757488
  0
LINE
  8
0
 10
12.678397759999
 20
5.57759664
 11
16.441594239999
 21
5.57759664
  0
LINE
  8
0
 10
12.678397759999
 20
6.65279616
 11
16.441594239999
 21
6.65279616
  0
ARC
  8
0
 10
12.678397759999
 20
5.93599664
 40
0.3583999840000001
 50
179.99994
 51
270.0
  0
ARC
  8
0
 10
12.678397759999
 20
6.29439616
 40
0.3583999840000001
 50
90.0
 51
179.99994
  0
LINE
  8
0
 10
12.319997759999
 20
6.29439616
 11
12.319997759999
 21
5.93599664
  0
ARC
  8
0
 10
16.441594239999
 20
6.29439616
 40
0.3583999840000001
 50
0.0
 51
90.0
  0
ARC
  8
0
 10
16.441594239999
 20
5.93599664
 40
0.3583999840000001
 50
270.0
 51
0.0
  0
LINE
  8
0
 10
16.79999424
 20
6.29439616
 11
16.79999424
 21
5.93599664
  0
LINE
  8
0
 10
6.621172799999
 20
10.63999856
 11
8.0321632
 21
10.63999856
  0
LINE
  8
0
 10
25.952162927999
 20
10.63999936
 11
29.21333792
 21
1.68000064
  0
LINE
  8
0
 10
21.279999519999
 20
1.68000528
 11
24.541168639999
 21
10.639988
  0
LINE
  8
0
 10
23.667586079999
 20
4.31024928
 11
26.8257509616
 21
4.31024928
  0
LINE
  8
0
 10
22.7102536
 20
1.67999904
 11
23.667586559999
 21
4.31024784
  0
LINE
  8
0
 10
21.28000064
 20
1.68
 11
22.71025168
 21
1.68
  0
LINE
  8
0
 10
24.09179248
 20
5.47574928
 11
26.401542576
 21
5.47574928
  0
LINE
  8
0
 10
24.091794239999
 20
5.475748
 11
25.24666896
 21
8.64873888
  0
LINE
  8
0
 10
25.2466664
 20
8.64873968
 11
26.401541424
 21
5.475748
  0
LINE
  8
0
 10
26.8257489648
 20
4.31024816
 11
27.783081824
 21
1.67999952
  0
LINE
  8
0
 10
27.783083439999
 20
1.68
 11
29.21333888
 21
1.68
  0
POINT
  8
0
 10
26.8799984
 20
0.0
 30
0.0
  0
POINT
  8
0
 10
26.8799984
 20
0.0
 30
0.0
  0
LINE
  8
0
 10
24.541171999999
 20
10.63999856
 11
25.952163024
 21
10.63999856
  0
TEXT
  8
0
 10
35.978853279999
 20
1.99199984
 40
8.0
  1
断面
 41
0.8643459
  0
ENDBLK
  8
0
  0
BLOCK
  8
0
  2
AA
 70
     0
 10
0.0
 20
0.0
  0
LINE
  8
0
 10
0.000001680067
 20
0.00000565232
 11
2.9117599
 21
7.9999905
  0
LINE
  8
0
 10
3.5416694
 20
6.2220893
 11
4.5728078
 21
3.3890617
  0
LINE
  8
0
 10
2.5105312
 20
3.3890617
 11
3.5416694
 21
6.2220888
  0
LINE
  8
0
 10
4.171576
 20
7.999999
 11
7.0833392
 21
0.000000048888
  0
LINE
  8
0
 10
2.1317739
 20
2.3484368
 11
4.9515643
 21
2.3484368
  0
LINE
  8
0
 10
2.5105309
 20
3.3890619
 11
4.5728073
 21
3.3890619
  0
LINE
  8
0
 10
0.000001907349
 20
0.0
 11
1.2770123
 21
0.0
  0
POINT
  8
0
 10
0.0
 20
0.0
 30
0.0
  0
LINE
  8
0
 10
1.2770127
 20
-0.000000009364
 11
2.1317742
 21
2.3484364
  0
LINE
  8
0
 10
5.8063259
 20
0.0
 11
7.0833392
 21
0.0
  0
LINE
  8
0
 10
4.9515648
 20
2.3484368
 11
5.8063259
 21
0.000000268506
  0
LINE
  8
0
 10
2.9117632
 20
7.999999
 11
4.171576
 21
7.999999
  0
ENDBLK
  8
0
  0
BLOCK
  8
0
  2
訂正1
 70
     0
 10
0.0
 20
0.0
  0
LINE
  8
1HATCH
 10
0.000000135843
 20
2.025
 11
2.33826804
 21
-2.0250009
  0
LINE
  8
1HATCH
 10
-2.33826867
 20
-2.025
 11
2.33826849
 21
-2.025
  0
TEXT
  8
1TEXT
 10
-0.434499620191
 20
-1.510450886077
 40
1.8
  1
1
 41
0.66666667
 72
     1
 11
0.051214667951
 21
-1.510450886077
  0
LINE
  8
1HATCH
 10
0.000000476316
 20
2.02500018
 11
-2.33826849
 21
-2.02499937
  0
ENDBLK
  8
0
  0
BLOCK
  8
0
  2
*D414
 70
     1
 10
0.0
 20
0.0
  0
LINE
  8
1DIM
 10
38746.26189373483
 20
-6764.82651730407
 11
38746.26189373483
 21
-6834.82651730407
  0
LINE
  8
1DIM
 10
39323.26187108508
 20
-6764.82651730407
 11
39323.26187108508
 21
-6834.82651730407
  0
LINE
  8
1DIM
 10
38786.26189373483
 20
-6814.82651730407
 11
39283.26187108508
 21
-6814.82651730407
  0
INSERT
  8
1DIM
  2
_OPEN30
 10
38746.26189373483
 20
-6814.82651730407
 30
0.0
 41
40.0
 42
40.0
 43
40.0
 50
180.0
  0
INSERT
  8
1DIM
  2
_OPEN30
 10
39323.26187108508
 20
-6814.82651730407
 30
0.0
 41
40.0
 42
40.0
 43
40.0
  0
TEXT
  8
1DIM
  6
CONTINUOUS
 62
   201
 10
38934.76188240996
 20
-6800.82651730407
 40
70.0
  1
577
  0
POINT
  8
DEFPOINTS
 62
     0
 10
38746.26189373483
 20
-6664.82651730407
 30
0.0
  0
POINT
  8
DEFPOINTS
 62
     0
 10
39323.26187108508
 20
-6664.82651730407
 30
0.0
  0
POINT
  8
DEFPOINTS
 62
     0
 10
39323.26187108508
 20
-6814.82651730407
 30
0.0
  0
ENDBLK
  8
0
  0
BLOCK
  8
0
  2
*D415
 70
     1
 10
0.0
 20
0.0
  0
LINE
  8
1DIM
 10
38646.26189135064
 20
-6225.981797082487
 11
38576.26189373483
 21
-6225.981797082487
  0
LINE
  8
1DIM
 10
38646.26189373483
 20
-6664.82651730407
 11
38576.26189373483
 21
-6664.82651730407
  0
LINE
  8
1DIM
 10
38596.26189373483
 20
-6265.981797082487
 11
38596.26189373483
 21
-6624.82651730407
  0
INSERT
  8
1DIM
  2
_OPEN30
 10
38596.26189373483
 20
-6225.981797082487
 30
0.0
 41
40.0
 42
40.0
 43
40.0
 50
90.0
  0
INSERT
  8
1DIM
  2
_OPEN30
 10
38596.26189373483
 20
-6664.82651730407
 30
0.0
 41
40.0
 42
40.0
 43
40.0
 50
270.0
  0
TEXT
  8
1DIM
  6
CONTINUOUS
 62
   201
 10
38582.26189373483
 20
-6545.404157193276
 40
70.0
  1
440
 50
90.0
  0
POINT
  8
DEFPOINTS
 62
     0
 10
38746.26189135064
 20
-6225.981797082487
 30
0.0
  0
POINT
  8
DEFPOINTS
 62
     0
 10
38746.26189373483
 20
-6664.82651730407
 30
0.0
  0
POINT
  8
DEFPOINTS
 62
     0
 10
38596.26189373483
 20
-6664.82651730407
 30
0.0
  0
ENDBLK
  8
0
  0
BLOCK
  8
0
  2
*D416
 70
     1
 10
0.0
 20
0.0
  0
LINE
  8
1DIM
 10
38773.26190446367
 20
-5808.09396524045
 11
38773.26190446367
 21
-5738.09396524045
  0
LINE
  8
1DIM
 10
39323.26185916415
 20
-5808.09396524045
 11
39323.26185916415
 21
-5738.09396524045
  0
LINE
  8
1DIM
 10
38813.26190446367
 20
-5758.09396524045
 11
39283.26185916415
 21
-5758.09396524045
  0
INSERT
  8
1DIM
  2
_OPEN30
 10
38773.26190446367
 20
-5758.09396524045
 30
0.0
 41
40.0
 42
40.0
 43
40.0
 50
180.0
  0
INSERT
  8
1DIM
  2
_OPEN30
 10
39323.26185916415
 20
-5758.09396524045
 30
0.0
 41
40.0
 42
40.0
 43
40.0
  0
TEXT
  8
1DIM
  6
CONTINUOUS
 62
   201
 10
38948.26188181391
 20
-5744.09396524045
 40
70.0
  1
550
  0
POINT
  8
DEFPOINTS
 62
     0
 10
38773.26190446367
 20
-5908.09396524045
 30
0.0
  0
POINT
  8
DEFPOINTS
 62
     0
 10
39323.26185916415
 20
-5908.09396524045
 30
0.0
  0
POINT
  8
DEFPOINTS
 62
     0
 10
39323.26185916415
 20
-5758.09396524045
 30
0.0
  0
ENDBLK
  8
0
  0
BLOCK
  8
0
  2
*D417
 70
     1
 10
0.0
 20
0.0
  0
LINE
  8
1DIM
 10
39723.26190446367
 20
-6056.111983393644
 11
39653.26190446367
 21
-6056.111983393644
  0
LINE
  8
1DIM
 10
39723.26190446367
 20
-6664.82651730407
 11
39653.26190446367
 21
-6664.82651730407
  0
LINE
  8
1DIM
 10
39673.26190446367
 20
-6096.111983393644
 11
39673.26190446367
 21
-6624.82651730407
  0
INSERT
  8
1DIM
  2
_OPEN30
 10
39673.26190446367
 20
-6056.111983393644
 30
0.0
 41
40.0
 42
40.0
 43
40.0
 50
90.0
  0
INSERT
  8
1DIM
  2
_OPEN30
 10
39673.26190446367
 20
-6664.82651730407
 30
0.0
 41
40.0
 42
40.0
 43
40.0
 50
270.0
  0
TEXT
  8
1DIM
  6
CONTINUOUS
 62
   201
 10
39659.26190446367
 20
-6460.469250348855
 40
70.0
  1
609
 50
90.0
  0
POINT
  8
DEFPOINTS
 62
     0
 10
39823.26190446367
 20
-6056.111983393644
 30
0.0
  0
POINT
  8
DEFPOINTS
 62
     0
 10
39823.26190446367
 20
-6664.82651730407
 30
0.0
  0
POINT
  8
DEFPOINTS
 62
     0
 10
39673.26190446367
 20
-6664.82651730407
 30
0.0
  0
ENDBLK
  8
0
  0
BLOCK
  8
0
  2
*D418
 70
     1
 10
0.0
 20
0.0
  0
LINE
  8
1DIM
 10
39823.26190446367
 20
-6764.82651730407
 11
39823.26190446367
 21
-6834.82651730407
  0
LINE
  8
1DIM
 10
40526.03284170564
 20
-6764.82651730407
 11
40526.03284170564
 21
-6834.82651730407
  0
LINE
  8
1DIM
 10
39863.26190446367
 20
-6814.82651730407
 11
40486.03284170564
 21
-6814.82651730407
  0
INSERT
  8
1DIM
  2
_OPEN30
 10
39823.26190446367
 20
-6814.82651730407
 30
0.0
 41
40.0
 42
40.0
 43
40.0
 50
180.0
  0
INSERT
  8
1DIM
  2
_OPEN30
 10
40526.03284170564
 20
-6814.82651730407
 30
0.0
 41
40.0
 42
40.0
 43
40.0
  0
TEXT
  8
1DIM
  6
CONTINUOUS
 62
   201
 10
40074.64737308465
 20
-6800.82651730407
 40
70.0
  1
705
  0
POINT
  8
DEFPOINTS
 62
     0
 10
39823.26190446367
 20
-6664.82651730407
 30
0.0
  0
POINT
  8
DEFPOINTS
 62
     0
 10
40526.03284170564
 20
-6664.82651730407
 30
0.0
  0
POINT
  8
DEFPOINTS
 62
     0
 10
40526.03284170564
 20
-6814.82651730407
 30
0.0
  0
ENDBLK
  8
0
  0
BLOCK
  8
0
  2
*D420
 70
     1
 10
0.0
 20
0.0
  0
LINE
  8
1DIM
 10
39823.26190446367
 20
-5808.09396524045
 11
39823.26190446367
 21
-5738.09396524045
  0
LINE
  8
1DIM
 10
40298.51777710412
 20
-5808.09396524045
 11
40298.51777710412
 21
-5738.09396524045
  0
LINE
  8
1DIM
 10
39863.26190446367
 20
-5758.09396524045
 11
40258.51777710412
 21
-5758.09396524045
  0
INSERT
  8
1DIM
  2
_OPEN30
 10
39823.26190446367
 20
-5758.09396524045
 30
0.0
 41
40.0
 42
40.0
 43
40.0
 50
180.0
  0
INSERT
  8
1DIM
  2
_OPEN30
 10
40298.51777710412
 20
-5758.09396524045
 30
0.0
 41
40.0
 42
40.0
 43
40.0
  0
TEXT
  8
1DIM
  6
CONTINUOUS
 62
   201
 10
39960.88984078389
 20
-5744.09396524045
 40
70.0
  1
475
  0
POINT
  8
DEFPOINTS
 62
     0
 10
39823.26190446367
 20
-5908.09396524045
 30
0.0
  0
POINT
  8
DEFPOINTS
 62
     0
 10
40298.51777710412
 20
-5908.09396524045
 30
0.0
  0
POINT
  8
DEFPOINTS
 62
     0
 10
40298.51777710412
 20
-5758.09396524045
 30
0.0
  0
ENDBLK
  8
0
  0
BLOCK
  8
0
  2
*D421
 70
     1
 10
0.0
 20
0.0
  0
LINE
  8
1DIM
 10
40626.03284170564
 20
-5908.09396524045
 11
40696.03284170564
 21
-5908.09396524045
  0
LINE
  8
1DIM
 10
40626.03284170564
 20
-6664.82651730407
 11
40696.03284170564
 21
-6664.82651730407
  0
LINE
  8
1DIM
 10
40676.03284170564
 20
-5948.09396524045
 11
40676.03284170564
 21
-6624.82651730407
  0
INSERT
  8
1DIM
  2
_OPEN30
 10
40676.03284170564
 20
-5908.09396524045
 30
0.0
 41
40.0
 42
40.0
 43
40.0
 50
90.0
  0
INSERT
  8
1DIM
  2
_OPEN30
 10
40676.03284170564
 20
-6664.82651730407
 30
0.0
 41
40.0
 42
40.0
 43
40.0
 50
270.0
  0
TEXT
  8
1DIM
  6
CONTINUOUS
 62
   201
 10
40662.03284170564
 20
-6386.46024127226
 40
70.0
  1
757
 50
90.0
  0
POINT
  8
DEFPOINTS
 62
     0
 10
40526.03284170564
 20
-5908.09396524045
 30
0.0
  0
POINT
  8
DEFPOINTS
 62
     0
 10
40526.03284170564
 20
-6664.82651730407
 30
0.0
  0
POINT
  8
DEFPOINTS
 62
     0
 10
40676.03284170564
 20
-6664.82651730407
 30
0.0
  0
ENDBLK
  8
0
  0
ENDSEC
  0
SECTION
  2
ENTITIES
  0
POLYLINE
  8
0
  6
CONTINUOUS
 66
     1
  0
VERTEX
  8
0
  6
CONTINUOUS
 10
38773.26189254274
 20
-6235.142812735131
  0
VERTEX
  8
0
  6
CONTINUOUS
 10
38773.27592958966
 20
-6235.019899016136
  0
VERTEX
  8
0
  6
CONTINUOUS
 10
38773.29256546768
 20
-6234.896465186372
  0
VERTEX
  8
0
  6
CONTINUOUS
 10
38773.31184103127
 20
-6234.772586292282
  0
VERTEX
  8
0
  6
CONTINUOUS
 10
38773.33379453961
 20
-6234.648339995644
  0
VERTEX
  8
0
  6
CONTINUOUS
 10
38773.35846148178
 20
-6234.523806477841
  0
VERTEX
  8
0
  6
CONTINUOUS
 10
38773.38587440512
 20
-6234.399068331528
  0
VERTEX
  8
0
  6
CONTINUOUS
 10
38773.41606274741
 20
-6234.274210439653
  0
VERTEX
  8
0
  6
CONTINUOUS
 10
38773.44905267405
 20
-6234.149319841892
  0
VERTEX
  8
0
  6
CONTINUOUS
 10
38773.48486692127
 20
-6234.02448558863
  0
VERTEX
  8
0
  6
CONTINUOUS
 10
38773.5235246464
 20
-6233.899798582734
  0
VERTEX
  8
0
  6
CONTINUOUS
 10
38773.56504128599
 20
-6233.775351409419
  0
VERTEX
  8
0
  6
CONTINUOUS
 10
38773.60942842338
 20
-6233.651238154676
  0
VERTEX
  8
0
  6
CONTINUOUS
 10
38773.65669366601
 20
-6233.527554212715
  0
VERTEX
  8
0
  6
CONTINUOUS
 10
38773.70684053399
 20
-6233.40439608309
  0
VERTEX
  8
0
  6
CONTINUOUS
 10
38773.75986836064
 20
-6233.281861158188
  0
VERTEX
  8
0
  6
CONTINUOUS
 10
38773.81577220593
 20
-6233.160047501869
  0
VERTEX
  8
0
  6
CONTINUOUS
 10
38773.87454278367
 20
-6233.039053620198
  0
VERTEX
  8
0
  6
CONTINUOUS
 10
38773.93616640304
 20
-6232.91897822516
  0
VERTEX
  8
0
  6
CONTINUOUS
 10
38774.00062492558
 20
-6232.799919992499
  0
VERTEX
  8
0
  6
CONTINUOUS
 10
38774.06789573773
 20
-6232.681977314735
  0
VERTEX
  8
0
  6
CONTINUOUS
 10
38774.13795173972
 20
-6232.565248050588
  0
VERTEX
  8
0
  6
CONTINUOUS
 10
38774.21076135121
 20
-6232.449829272032
  0
VERTEX
  8
0
  6
CONTINUOUS
 10
38774.28628853376
 20
-6232.335817010289
  0
VERTEX
  8
0
  6
CONTINUOUS
 10
38774.3644928307
 20
-6232.223306002055
  0
VERTEX
  8
0
  6
CONTINUOUS
 10
38774.44532942404
 20
-6232.112389437344
  0
VERTEX
  8
0
  6
CONTINUOUS
 10
38774.52874920861
 20
-6232.003158710272
  0
VERTEX
  8
0
  6
CONTINUOUS
 10
38774.61469888323
 20
-6231.895703174193
  0
VERTEX
  8
0
  6
CONTINUOUS
 10
38774.70312105858
 20
-6231.790109902461
  0
VERTEX
  8
0
  6
CONTINUOUS
 10
38774.7939543813
 20
-6231.686463456215
  0
VERTEX
  8
0
  6
CONTINUOUS
 10
38774.88713367389
 20
-6231.584845660431
  0
VERTEX
  8
0
  6
CONTINUOUS
 10
38774.98259008953
 20
-6231.485335389474
  0
VERTEX
  8
0
  6
CONTINUOUS
 10
38775.08025128148
 20
-6231.388008363358
  0
VERTEX
  8
0
  6
CONTINUOUS
 10
38775.18004158569
 20
-6231.292936955783
  0
VERTEX
  8
0
  6
CONTINUOUS
 10
38775.28188221586
 20
-6231.200190014989
  0
VERTEX
  8
0
  6
CONTINUOUS
 10
38775.38569147017
 20
-6231.10983269835
  0
VERTEX
  8
0
  6
CONTINUOUS
 10
38775.49138494799
 20
-6231.021926321539
  0
VERTEX
  8
0
  6
CONTINUOUS
 10
38775.59887577587
 20
-6230.936528222993
  0
VERTEX
  8
0
  6
CONTINUOUS
 10
38775.70807484122
 20
-6230.853691644275
  0
VERTEX
  8
0
  6
CONTINUOUS
 10
38775.81889103264
 20
-6230.773465626847
  0
VERTEX
  8
0
  6
CONTINUOUS
 10
38775.93123148535
 20
-6230.695894925597
  0
VERTEX
  8
0
  6
CONTINUOUS
 10
38776.0450018305
 20
-6230.621019939408
  0
VERTEX
  8
0
  6
CONTINUOUS
 10
38776.16010644699
 20
-6230.548876658859
  0
VERTEX
  8
0
  6
CONTINUOUS
 10
38776.27644871434
 20
-6230.479496631106
  0
VERTEX
  8
0
  6
CONTINUOUS
 10
38776.39393126545
 20
-6230.412906941777
  0
VERTEX
  8
0
  6
CONTINUOUS
 10
38776.51245623785
 20
-6230.349130213729
  0
VERTEX
  8
0
  6
CONTINUOUS
 10
38776.63192552207
 20
-6230.288184622243
  0
VERTEX
  8
0
  6
CONTINUOUS
 10
38776.75224100616
 20
-6230.230083926273
  0
VERTEX
  8
0
  6
CONTINUOUS
 10
38776.87330481498
 20
-6230.174837515204
  0
VERTEX
  8
0
  6
CONTINUOUS
 10
38776.9950195433
 20
-6230.122450470453
  0
VERTEX
  8
0
  6
CONTINUOUS
 10
38777.11728848157
 20
-6230.07292364124
  0
VERTEX
  8
0
  6
CONTINUOUS
 10
38777.2400158336
 20
-6230.026253733706
  0
VERTEX
  8
0
  6
CONTINUOUS
 10
38777.36310692518
 20
-6229.982433412571
  0
VERTEX
  8
0
  6
CONTINUOUS
 10
38777.48646840287
 20
-6229.941451414398
  0
VERTEX
  8
0
  6
CONTINUOUS
 10
38777.61000842238
 20
-6229.903292671508
  0
VERTEX
  8
0
  6
CONTINUOUS
 10
38777.73363682584
 20
-6229.867938445611
  0
VERTEX
  8
0
  6
CONTINUOUS
 10
38777.85726530773
 20
-6229.835366470102
  0
VERTEX
  8
0
  6
CONTINUOUS
 10
38777.98080756873
 20
-6229.805551100025
  0
VERTEX
  8
0
  6
CONTINUOUS
 10
38778.10417945751
 20
-6229.778463468674
  0
VERTEX
  8
0
  6
CONTINUOUS
 10
38778.22729910019
 20
-6229.754071649818
  0
VERTEX
  8
0
  6
CONTINUOUS
 10
38778.35008701718
 20
-6229.732340824523
  0
VERTEX
  8
0
  6
CONTINUOUS
 10
38778.47246622766
 20
-6229.71323345159
  0
VERTEX
  8
0
  6
CONTINUOUS
 10
38783.91282561234
 20
-6229.254045700244
  0
VERTEX
  8
0
  6
CONTINUOUS
 10
38790.50614460313
 20
-6228.830105168087
  0
VERTEX
  8
0
  6
CONTINUOUS
 10
38797.10718723368
 20
-6228.549169363118
  0
VERTEX
  8
0
  6
CONTINUOUS
 10
38804.06053377869
 20
-6228.415007695372
  0
VERTEX
  8
0
  6
CONTINUOUS
 10
38815.45915641034
 20
-6228.396512851415
  0
VERTEX
  8
0
  6
CONTINUOUS
 10
38826.37239637892
 20
-6228.378065648605
  0
VERTEX
  8
0
  6
CONTINUOUS
 10
38836.87356520281
 20
-6228.359710664081
  0
VERTEX
  8
0
  6
CONTINUOUS
 10
38847.03597440037
 20
-6228.341492474978
  0
VERTEX
  8
0
  6
CONTINUOUS
 10
38856.93293548998
 20
-6228.323455658433
  0
VERTEX
  8
0
  6
CONTINUOUS
 10
38866.63775999
 20
-6228.305644791581
  0
VERTEX
  8
0
  6
CONTINUOUS
 10
38876.2237594188
 20
-6228.288104451561
  0
VERTEX
  8
0
  6
CONTINUOUS
 10
38885.76424529475
 20
-6228.270879215506
  0
VERTEX
  8
0
  6
CONTINUOUS
 10
38895.33252913621
 20
-6228.254013660554
  0
VERTEX
  8
0
  6
CONTINUOUS
 10
38905.00192246155
 20
-6228.23755236384
  0
VERTEX
  8
0
  6
CONTINUOUS
 10
38914.84573678915
 20
-6228.221539902501
  0
VERTEX
  8
0
  6
CONTINUOUS
 10
38924.93479777149
 20
-6228.206023407145
  0
VERTEX
  8
0
  6
CONTINUOUS
 10
38935.29102438119
 20
-6228.191100245153
  0
VERTEX
  8
0
  6
CONTINUOUS
 10
38945.89162403595
 20
-6228.176913711457
  0
VERTEX
  8
0
  6
CONTINUOUS
 10
38956.71215942856
 20
-6228.163608790444
  0
VERTEX
  8
0
  6
CONTINUOUS
 10
38967.72819325182
 20
-6228.151330466502
  0
VERTEX
  8
0
  6
CONTINUOUS
 10
38978.9152881985
 20
-6228.140223724018
  0
VERTEX
  8
0
  6
CONTINUOUS
 10
38990.24900696141
 20
-6228.130433547381
  0
VERTEX
  8
0
  6
CONTINUOUS
 10
39001.70491223335
 20
-6228.12210492098
  0
VERTEX
  8
0
  6
CONTINUOUS
 10
39013.2585667071
 20
-6228.115382829199
  0
VERTEX
  8
0
  6
CONTINUOUS
 10
39024.88553307544
 20
-6228.11041225643
  0
VERTEX
  8
0
  6
CONTINUOUS
 10
39036.56137403119
 20
-6228.107338187058
  0
VERTEX
  8
0
  6
CONTINUOUS
 10
39048.26165226712
 20
-6228.106305605474
  0
SEQEND
  8
0
  6
CONTINUOUS
  0
LINE
  8
0
 10
40370.88588768311
 20
-6515.813195777099
 11
39896.12584881917
 21
-6465.91390481253
  0
LINE
  8
0
 10
39902.18361687638
 20
-6426.33027453567
 11
40363.32672452542
 21
-6474.7983664251
  0
POLYLINE
  8
0
  6
CONTINUOUS
 62
     4
 66
     1
  0
VERTEX
  8
0
  6
CONTINUOUS
 62
     4
 10
40383.65775197334
 20
-6292.031041199069
  0
VERTEX
  8
0
  6
CONTINUOUS
 62
     4
 10
40383.66757675787
 20
-6292.002505440282
  0
VERTEX
  8
0
  6
CONTINUOUS
 62
     4
 10
40383.67718939512
 20
-6291.974585938529
  0
VERTEX
  8
0
  6
CONTINUOUS
 62
     4
 10
40383.68641702897
 20
-6291.947784815755
  0
VERTEX
  8
0
  6
CONTINUOUS
 62
     4
 10
40383.69523755038
 20
-6291.922166295482
  0
VERTEX
  8
0
  6
CONTINUOUS
 62
     4
 10
40383.7036649977
 20
-6291.897689598316
  0
VERTEX
  8
0
  6
CONTINUOUS
 62
     4
 10
40383.71171340931
 20
-6291.874313944859
  0
VERTEX
  8
0
  6
CONTINUOUS
 62
     4
 10
40383.71939682357
 20
-6291.851998555714
  0
VERTEX
  8
0
  6
CONTINUOUS
 62
     4
 10
40383.72672927882
 20
-6291.830702651486
  0
VERTEX
  8
0
  6
CONTINUOUS
 62
     4
 10
40383.73372481344
 20
-6291.810385452776
  0
VERTEX
  8
0
  6
CONTINUOUS
 62
     4
 10
40383.74039746577
 20
-6291.791006180189
  0
VERTEX
  8
0
  6
CONTINUOUS
 62
     4
 10
40383.7467612742
 20
-6291.772524054329
  0
VERTEX
  8
0
  6
CONTINUOUS
 62
     4
 10
40383.75283027704
 20
-6291.754898295797
  0
VERTEX
  8
0
  6
CONTINUOUS
 62
     4
 10
40383.75861851271
 20
-6291.738088125198
  0
VERTEX
  8
0
  6
CONTINUOUS
 62
     4
 10
40383.76414001954
 20
-6291.722052763136
  0
VERTEX
  8
0
  6
CONTINUOUS
 62
     4
 10
40383.76940883588
 20
-6291.706751430213
  0
VERTEX
  8
0
  6
CONTINUOUS
 62
     4
 10
40383.7744390001
 20
-6291.692143347033
  0
VERTEX
  8
0
  6
CONTINUOUS
 62
     4
 10
40383.77924455057
 20
-6291.678187734199
  0
VERTEX
  8
0
  6
CONTINUOUS
 62
     4
 10
40383.78383952564
 20
-6291.664843812315
  0
VERTEX
  8
0
  6
CONTINUOUS
 62
     4
 10
40383.78823796366
 20
-6291.652070801983
  0
VERTEX
  8
0
  6
CONTINUOUS
 62
     4
 10
40383.79245390301
 20
-6291.639827923807
  0
VERTEX
  8
0
  6
CONTINUOUS
 62
     4
 10
40383.79650138205
 20
-6291.628074398393
  0
VERTEX
  8
0
  6
CONTINUOUS
 62
     4
 10
40383.80039443912
 20
-6291.616769446339
  0
VERTEX
  8
0
  6
CONTINUOUS
 62
     4
 10
40383.80414711259
 20
-6291.605872288254
  0
VERTEX
  8
0
  6
CONTINUOUS
 62
     4
 10
40383.80777344082
 20
-6291.595342144738
  0
VERTEX
  8
0
  6
CONTINUOUS
 62
     4
 10
40383.81128746217
 20
-6291.585138236394
  0
VERTEX
  8
0
  6
CONTINUOUS
 62
     4
 10
40383.81470321502
 20
-6291.575219783827
  0
VERTEX
  8
0
  6
CONTINUOUS
 62
     4
 10
40383.81803473768
 20
-6291.56554600764
  0
VERTEX
  8
0
  6
CONTINUOUS
 62
     4
 10
40383.82129606856
 20
-6291.556076128436
  0
VERTEX
  8
0
  6
CONTINUOUS
 62
     4
 10
40383.82450124599
 20
-6291.546769366819
  0
VERTEX
  8
0
  6
CONTINUOUS
 62
     4
 10
40383.82766430834
 20
-6291.537584943391
  0
VERTEX
  8
0
  6
CONTINUOUS
 62
     4
 10
40383.83079929398
 20
-6291.528482078758
  0
VERTEX
  8
0
  6
CONTINUOUS
 62
     4
 10
40383.83392024125
 20
-6291.51941999352
  0
SEQEND
  8
0
  6
CONTINUOUS
 62
     4
  0
LINE
  8
0
  6
CONTINUOUS
 10
39048.2618818139
 20
-4864.71800368784
 11
38803.26187108507
 21
-4864.71800368784
  0
POLYLINE
  8
0
  6
CONTINUOUS
 66
     1
  0
VERTEX
  8
0
  6
CONTINUOUS
 10
38803.26187108507
 20
-4879.912269140439
  0
VERTEX
  8
0
  6
CONTINUOUS
 10
38803.26187108507
 20
-4856.027914700489
 42
0.417429979052
  0
VERTEX
  8
0
  6
CONTINUOUS
 10
38801.26186703195
 20
-4854.027910647379
  0
VERTEX
  8
0
  6
CONTINUOUS
 10
38775.26187394609
 20
-4854.027910647379
 42
0.416549880933
  0
VERTEX
  8
0
  6
CONTINUOUS
 10
38773.26189373482
 20
-4856.02100757663
  0
VERTEX
  8
0
  6
CONTINUOUS
 10
38773.26189373483
 20
-5528.18531344053
 42
0.413931751342
  0
VERTEX
  8
0
  6
CONTINUOUS
 10
38803.18901370173
 20
-5558.09396524045
  0
VERTEX
  8
0
  6
CONTINUOUS
 10
39048.2618818139
 20
-5558.09396524045
  0
SEQEND
  8
0
  6
CONTINUOUS
  0
POLYLINE
  8
0
 66
     1
  0
VERTEX
  8
0
 10
39048.26190565576
 20
-4879.912269140439
  0
VERTEX
  8
0
 10
38798.26974315469
 20
-4879.912269140439
 42
0.409923942773
  0
VERTEX
  8
0
 10
38773.26189373482
 20
-4907.317708955091
  0
SEQEND
  8
0
  0
POLYLINE
  8
0
 66
     1
  0
VERTEX
  8
0
 10
38773.26189373483
 20
-4952.67705195065
 42
0.380733167307
  0
VERTEX
  8
0
 10
38813.07587444475
 20
-4998.176142789456
 42
0.04117623948
  0
VERTEX
  8
0
 10
39048.26190565576
 20
-5020.56922770118
  0
SEQEND
  8
0
  0
POLYLINE
  8
0
 66
     1
  0
VERTEX
  8
0
 10
38773.26189373482
 20
-5036.210583288971
 42
0.401694990331
  0
VERTEX
  8
0
 10
38809.62119651543
 20
-5072.814881041324
 42
0.021814873476
  0
VERTEX
  8
0
 10
39044.66369936468
 20
-5083.545123386921
 42
0.373392447689
  0
VERTEX
  8
0
 10
39048.2618818139
 20
-5079.713080727865
  0
SEQEND
  8
0
  0
POLYLINE
  8
0
 66
     1
  0
VERTEX
  8
0
 10
38773.26189373483
 20
-4897.80791064738
  0
VERTEX
  8
0
 10
38746.26189373483
 20
-4897.80791064738
  0
VERTEX
  8
0
 10
38746.26189373483
 20
-5316.88791064738
  0
VERTEX
  8
0
 10
38773.26189373483
 20
-5316.88791064738
  0
SEQEND
  8
0
  0
POLYLINE
  8
0
  6
CONTINUOUS
 66
     1
  0
VERTEX
  8
0
  6
CONTINUOUS
 10
38773.26189373483
 20
-5528.18531344051
  0
VERTEX
  8
0
  6
CONTINUOUS
 10
38773.26189373485
 20
-5554.493015505041
  0
VERTEX
  8
0
  6
CONTINUOUS
 10
38773.26189373485
 20
-5554.495459295469
 42
0.414424386707
  0
VERTEX
  8
0
  6
CONTINUOUS
 10
38775.26190565578
 20
-5556.4954337585
  0
VERTEX
  8
0
  6
CONTINUOUS
 10
38783.74189778797
 20
-5556.488102174959
 42
0.437027272251
  0
VERTEX
  8
0
  6
CONTINUOUS
 10
38785.8925654726
 20
-5554.4954337585
  0
VERTEX
  8
0
  6
CONTINUOUS
 10
38785.89256321442
 20
-5552.59021381023
  0
SEQEND
  8
0
  6
CONTINUOUS
  0
POLYLINE
  8
0
  6
CONTINUOUS
 66
     1
 70
     1
  0
VERTEX
  8
0
  6
CONTINUOUS
 10
38776.26191352357
 20
-6664.82651730407
  0
VERTEX
  8
0
  6
CONTINUOUS
 10
38800.26190255632
 20
-6664.82651730407
 42
0.417906481242
  0
VERTEX
  8
0
  6
CONTINUOUS
 10
38803.26189373482
 20
-6661.826517277989
  0
VERTEX
  8
0
  6
CONTINUOUS
 10
38803.26189373482
 20
-6661.756760751489
  0
VERTEX
  8
0
  6
CONTINUOUS
 10
38803.26189373482
 20
-6322.09016442924
 42
0.415975756301
  0
VERTEX
  8
0
  6
CONTINUOUS
 10
38801.26188968171
 20
-6320.090190178443
  0
VERTEX
  8
0
  6
CONTINUOUS
 10
38775.26189659584
 20
-6320.090190178441
 42
0.418952842046
  0
VERTEX
  8
0
  6
CONTINUOUS
 10
38773.26189254274
 20
-6322.09016442924
  0
VERTEX
  8
0
  6
CONTINUOUS
 10
38773.26189254274
 20
-6661.756760751489
  0
VERTEX
  8
0
  6
CONTINUOUS
 10
38773.26189254274
 20
-6661.826517277989
 42
0.413414595255
  0
SEQEND
  8
0
  6
CONTINUOUS
  0
LINE
  8
0
 10
38773.26190446367
 20
-6066.826517304061
 11
38773.26190446367
 21
-5908.09396524045
  0
ARC
  8
0
 10
39042.89280720609
 20
-2682.892709782809
 40
2245.863876348702
 50
263.104627461147
 51
270.136974897377
  0
POLYLINE
  8
0
  6
CONTINUOUS
 66
     1
  0
VERTEX
  8
0
  6
CONTINUOUS
 10
38773.26189254274
 20
-6322.058144812571
  0
VERTEX
  8
0
  6
CONTINUOUS
 10
38773.26189254274
 20
-6066.82652731765
 42
0.414298251783
  0
VERTEX
  8
0
  6
CONTINUOUS
 10
38771.26191829193
 20
-6064.82649346221
  0
VERTEX
  8
0
  6
CONTINUOUS
 10
38748.26189540375
 20
-6064.82649346221
 42
0.414621073923
  0
VERTEX
  8
0
  6
CONTINUOUS
 10
38746.26189135064
 20
-6066.82652731765
  0
VERTEX
  8
0
  6
CONTINUOUS
 10
38746.26189135064
 20
-6385.137066847324
 42
0.423344401641
  0
VERTEX
  8
0
  6
CONTINUOUS
 10
38748.26189540375
 20
-6387.149260050342
  0
VERTEX
  8
0
  6
CONTINUOUS
 10
38771.26191829193
 20
-6387.14926005034
 42
0.415061393428
  0
VERTEX
  8
0
  6
CONTINUOUS
 10
38773.26190446367
 20
-6385.149251388971
  0
SEQEND
  8
0
  6
CONTINUOUS
  0
LINE
  8
0
  6
CONTINUOUS
 10
38803.16824062782
 20
-6321.485296494061
 11
39293.355523
 21
-6321.485296494061
  0
POLYLINE
  8
0
  6
CONTINUOUS
 66
     1
  0
VERTEX
  8
0
  6
CONTINUOUS
 10
39323.26187108508
 20
-6235.142812735131
  0
VERTEX
  8
0
  6
CONTINUOUS
 10
39323.24783403814
 20
-6235.019899016136
  0
VERTEX
  8
0
  6
CONTINUOUS
 10
39323.23119816014
 20
-6234.896465186372
  0
VERTEX
  8
0
  6
CONTINUOUS
 10
39323.21192259654
 20
-6234.772586292282
  0
VERTEX
  8
0
  6
CONTINUOUS
 10
39323.18996908822
 20
-6234.648339995644
  0
VERTEX
  8
0
  6
CONTINUOUS
 10
39323.16530214604
 20
-6234.523806477841
  0
VERTEX
  8
0
  6
CONTINUOUS
 10
39323.13788922269
 20
-6234.399068331528
  0
VERTEX
  8
0
  6
CONTINUOUS
 10
39323.10770088041
 20
-6234.274210439653
  0
VERTEX
  8
0
  6
CONTINUOUS
 10
39323.07471095378
 20
-6234.149319841892
  0
VERTEX
  8
0
  6
CONTINUOUS
 10
39323.03889670654
 20
-6234.02448558863
  0
VERTEX
  8
0
  6
CONTINUOUS
 10
39323.00023898143
 20
-6233.899798582734
  0
VERTEX
  8
0
  6
CONTINUOUS
 10
39322.95872234182
 20
-6233.775351409419
  0
VERTEX
  8
0
  6
CONTINUOUS
 10
39322.91433520443
 20
-6233.651238154676
  0
VERTEX
  8
0
  6
CONTINUOUS
 10
39322.8670699618
 20
-6233.527554212715
  0
VERTEX
  8
0
  6
CONTINUOUS
 10
39322.81692309383
 20
-6233.40439608309
  0
VERTEX
  8
0
  6
CONTINUOUS
 10
39322.76389526718
 20
-6233.281861158188
  0
VERTEX
  8
0
  6
CONTINUOUS
 10
39322.70799142187
 20
-6233.160047501869
  0
VERTEX
  8
0
  6
CONTINUOUS
 10
39322.64922084416
 20
-6233.039053620198
  0
VERTEX
  8
0
  6
CONTINUOUS
 10
39322.58759722478
 20
-6232.91897822516
  0
VERTEX
  8
0
  6
CONTINUOUS
 10
39322.52313870224
 20
-6232.799919992499
  0
VERTEX
  8
0
  6
CONTINUOUS
 10
39322.45586789009
 20
-6232.681977314735
  0
VERTEX
  8
0
  6
CONTINUOUS
 10
39322.3858118881
 20
-6232.565248050588
  0
VERTEX
  8
0
  6
CONTINUOUS
 10
39322.31300227661
 20
-6232.449829272032
  0
VERTEX
  8
0
  6
CONTINUOUS
 10
39322.23747509407
 20
-6232.335817010289
  0
VERTEX
  8
0
  6
CONTINUOUS
 10
39322.15927079712
 20
-6232.223306002055
  0
VERTEX
  8
0
  6
CONTINUOUS
 10
39322.07843420379
 20
-6232.112389437344
  0
VERTEX
  8
0
  6
CONTINUOUS
 10
39321.99501441921
 20
-6232.003158710272
  0
VERTEX
  8
0
  6
CONTINUOUS
 10
39321.9090647446
 20
-6231.895703174193
  0
VERTEX
  8
0
  6
CONTINUOUS
 10
39321.82064256923
 20
-6231.790109902461
  0
VERTEX
  8
0
  6
CONTINUOUS
 10
39321.7298092465
 20
-6231.686463456215
  0
VERTEX
  8
0
  6
CONTINUOUS
 10
39321.63662995392
 20
-6231.584845660431
  0
VERTEX
  8
0
  6
CONTINUOUS
 10
39321.54117353829
 20
-6231.485335389474
  0
VERTEX
  8
0
  6
CONTINUOUS
 10
39321.44351234633
 20
-6231.388008363358
  0
VERTEX
  8
0
  6
CONTINUOUS
 10
39321.34372204215
 20
-6231.292936955783
  0
VERTEX
  8
0
  6
CONTINUOUS
 10
39321.24188141197
 20
-6231.200190014989
  0
VERTEX
  8
0
  6
CONTINUOUS
 10
39321.13807215765
 20
-6231.10983269835
  0
VERTEX
  8
0
  6
CONTINUOUS
 10
39321.03237867983
 20
-6231.021926321539
  0
VERTEX
  8
0
  6
CONTINUOUS
 10
39320.92488785194
 20
-6230.936528222993
  0
VERTEX
  8
0
  6
CONTINUOUS
 10
39320.81568878659
 20
-6230.853691644275
  0
VERTEX
  8
0
  6
CONTINUOUS
 10
39320.70487259518
 20
-6230.773465626847
  0
VERTEX
  8
0
  6
CONTINUOUS
 10
39320.59253214247
 20
-6230.695894925597
  0
VERTEX
  8
0
  6
CONTINUOUS
 10
39320.47876179731
 20
-6230.621019939408
  0
VERTEX
  8
0
  6
CONTINUOUS
 10
39320.36365718082
 20
-6230.548876658859
  0
VERTEX
  8
0
  6
CONTINUOUS
 10
39320.24731491349
 20
-6230.479496631106
  0
VERTEX
  8
0
  6
CONTINUOUS
 10
39320.12983236236
 20
-6230.412906941777
  0
VERTEX
  8
0
  6
CONTINUOUS
 10
39320.01130738997
 20
-6230.349130213729
  0
VERTEX
  8
0
  6
CONTINUOUS
 10
39319.89183810575
 20
-6230.288184622243
  0
VERTEX
  8
0
  6
CONTINUOUS
 10
39319.77152262166
 20
-6230.230083926273
  0
VERTEX
  8
0
  6
CONTINUOUS
 10
39319.65045881283
 20
-6230.174837515204
  0
VERTEX
  8
0
  6
CONTINUOUS
 10
39319.52874408451
 20
-6230.122450470453
  0
VERTEX
  8
0
  6
CONTINUOUS
 10
39319.40647514626
 20
-6230.07292364124
  0
VERTEX
  8
0
  6
CONTINUOUS
 10
39319.28374779423
 20
-6230.026253733706
  0
VERTEX
  8
0
  6
CONTINUOUS
 10
39319.16065670263
 20
-6229.982433412571
  0
VERTEX
  8
0
  6
CONTINUOUS
 10
39319.03729522495
 20
-6229.941451414398
  0
VERTEX
  8
0
  6
CONTINUOUS
 10
39318.91375520545
 20
-6229.903292671508
  0
VERTEX
  8
0
  6
CONTINUOUS
 10
39318.79012680198
 20
-6229.867938445611
  0
VERTEX
  8
0
  6
CONTINUOUS
 10
39318.66649832009
 20
-6229.835366470102
  0
VERTEX
  8
0
  6
CONTINUOUS
 10
39318.54295605909
 20
-6229.805551100025
  0
VERTEX
  8
0
  6
CONTINUOUS
 10
39318.4195841703
 20
-6229.778463468674
  0
VERTEX
  8
0
  6
CONTINUOUS
 10
39318.29646452762
 20
-6229.754071649818
  0
VERTEX
  8
0
  6
CONTINUOUS
 10
39318.17367661063
 20
-6229.732340824523
  0
VERTEX
  8
0
  6
CONTINUOUS
 10
39318.05129740017
 20
-6229.71323345159
  0
VERTEX
  8
0
  6
CONTINUOUS
 10
39312.61093801548
 20
-6229.254045700244
  0
VERTEX
  8
0
  6
CONTINUOUS
 10
39306.01761902469
 20
-6228.830105168087
  0
VERTEX
  8
0
  6
CONTINUOUS
 10
39299.41657639414
 20
-6228.549169363118
  0
VERTEX
  8
0
  6
CONTINUOUS
 10
39292.46322984913
 20
-6228.415007695372
  0
VERTEX
  8
0
  6
CONTINUOUS
 10
39281.06460721748
 20
-6228.396512851415
  0
VERTEX
  8
0
  6
CONTINUOUS
 10
39270.15136724889
 20
-6228.378065648605
  0
VERTEX
  8
0
  6
CONTINUOUS
 10
39259.65019842501
 20
-6228.359710664081
  0
VERTEX
  8
0
  6
CONTINUOUS
 10
39249.48778922745
 20
-6228.341492474978
  0
VERTEX
  8
0
  6
CONTINUOUS
 10
39239.59082813784
 20
-6228.323455658433
  0
VERTEX
  8
0
  6
CONTINUOUS
 10
39229.88600363782
 20
-6228.305644791581
  0
VERTEX
  8
0
  6
CONTINUOUS
 10
39220.30000420902
 20
-6228.288104451561
  0
VERTEX
  8
0
  6
CONTINUOUS
 10
39210.75951833307
 20
-6228.270879215506
  0
VERTEX
  8
0
  6
CONTINUOUS
 10
39201.19123449161
 20
-6228.254013660554
  0
VERTEX
  8
0
  6
CONTINUOUS
 10
39191.52184116626
 20
-6228.23755236384
  0
VERTEX
  8
0
  6
CONTINUOUS
 10
39181.67802683866
 20
-6228.221539902501
  0
VERTEX
  8
0
  6
CONTINUOUS
 10
39171.58896583575
 20
-6228.206023407145
  0
VERTEX
  8
0
  6
CONTINUOUS
 10
39161.23273875959
 20
-6228.191100245153
  0
VERTEX
  8
0
  6
CONTINUOUS
 10
39150.63213739714
 20
-6228.176913711457
  0
VERTEX
  8
0
  6
CONTINUOUS
 10
39139.81159824664
 20
-6228.163608790444
  0
VERTEX
  8
0
  6
CONTINUOUS
 10
39128.79555780636
 20
-6228.151330466501
  0
VERTEX
  8
0
  6
CONTINUOUS
 10
39117.60845257455
 20
-6228.140223724017
  0
VERTEX
  8
0
  6
CONTINUOUS
 10
39106.27471904946
 20
-6228.13043354738
  0
VERTEX
  8
0
  6
CONTINUOUS
 10
39094.81879372934
 20
-6228.122104920976
  0
VERTEX
  8
0
  6
CONTINUOUS
 10
39083.26511311245
 20
-6228.115382829194
  0
VERTEX
  8
0
  6
CONTINUOUS
 10
39071.63811369704
 20
-6228.110412256423
  0
VERTEX
  8
0
  6
CONTINUOUS
 10
39059.96223198136
 20
-6228.107338187049
  0
VERTEX
  8
0
  6
CONTINUOUS
 10
39048.26190446366
 20
-6228.106305605461
  0
SEQEND
  8
0
  6
CONTINUOUS
  0
POLYLINE
  8
0
  6
CONTINUOUS
 66
     1
 70
     1
  0
VERTEX
  8
0
  6
CONTINUOUS
 10
39320.26185010425
 20
-6664.82651730407
  0
VERTEX
  8
0
  6
CONTINUOUS
 10
39296.2618610715
 20
-6664.82651730407
 42
-0.417906481242
  0
VERTEX
  8
0
  6
CONTINUOUS
 10
39293.26186989299
 20
-6661.826517277989
  0
VERTEX
  8
0
  6
CONTINUOUS
 10
39293.26186989299
 20
-6661.756760751489
  0
VERTEX
  8
0
  6
CONTINUOUS
 10
39293.26186989299
 20
-6322.09016442924
 42
-0.415975756301
  0
VERTEX
  8
0
  6
CONTINUOUS
 10
39295.2618739461
 20
-6320.090190178443
  0
VERTEX
  8
0
  6
CONTINUOUS
 10
39321.26186703198
 20
-6320.090190178441
 42
-0.418952842046
  0
VERTEX
  8
0
  6
CONTINUOUS
 10
39323.26187108508
 20
-6322.09016442924
  0
VERTEX
  8
0
  6
CONTINUOUS
 10
39323.26187108508
 20
-6661.756760751489
  0
VERTEX
  8
0
  6
CONTINUOUS
 10
39323.26187108508
 20
-6661.826517277989
 42
-0.413414595255
  0
SEQEND
  8
0
  6
CONTINUOUS
  0
LINE
  8
0
 10
39323.26185916415
 20
-6322.05673006281
 11
39323.26185916415
 21
-5908.09396524045
  0
POLYLINE
  8
0
 66
     1
  0
VERTEX
  8
0
 10
39323.26185916415
 20
-5908.09396524045
  0
VERTEX
  8
0
 10
39314.67642515425
 20
-5908.640530685437
  0
VERTEX
  8
0
 10
39306.09092610154
 20
-5909.185402380323
  0
VERTEX
  8
0
 10
39297.50529696319
 20
-5909.726886575009
  0
VERTEX
  8
0
 10
39288.91947269641
 20
-5910.263289519394
  0
VERTEX
  8
0
 10
39280.33338825838
 20
-5910.792917463378
  0
VERTEX
  8
0
 10
39271.74697860626
 20
-5911.314076656861
  0
VERTEX
  8
0
 10
39263.16017869726
 20
-5911.825073349743
  0
VERTEX
  8
0
 10
39254.57292348856
 20
-5912.324213791922
  0
VERTEX
  8
0
 10
39245.98514793734
 20
-5912.809804233299
  0
VERTEX
  8
0
 10
39237.39678700079
 20
-5913.280150923775
  0
VERTEX
  8
0
 10
39228.80777563611
 20
-5913.733560113248
  0
VERTEX
  8
0
 10
39220.21804880045
 20
-5914.168338051618
  0
VERTEX
  8
0
 10
39211.62754145103
 20
-5914.582790988785
  0
VERTEX
  8
0
 10
39203.03618854503
 20
-5914.975225174648
  0
VERTEX
  8
0
 10
39194.44392503962
 20
-5915.343946859109
  0
VERTEX
  8
0
 10
39185.85068589199
 20
-5915.687262292065
  0
VERTEX
  8
0
 10
39177.25642762252
 20
-5916.00403924023
  0
VERTEX
  8
0
 10
39168.66119348489
 20
-5916.295404053647
  0
VERTEX
  8
0
 10
39160.06504853701
 20
-5916.563050874629
  0
VERTEX
  8
0
 10
39151.46805783673
 20
-5916.808673845493
  0
VERTEX
  8
0
 10
39142.87028644194
 20
-5917.033967108557
  0
VERTEX
  8
0
 10
39134.27179941051
 20
-5917.240624806134
  0
VERTEX
  8
0
 10
39125.67266180032
 20
-5917.430341080546
  0
VERTEX
  8
0
 10
39117.07293866925
 20
-5917.604810074106
  0
VERTEX
  8
0
 10
39108.47269507516
 20
-5917.765725929133
  0
VERTEX
  8
0
 10
39099.87199607594
 20
-5917.914782787941
  0
VERTEX
  8
0
 10
39091.27090672947
 20
-5918.053674792849
  0
VERTEX
  8
0
 10
39082.66949209361
 20
-5918.184096086174
  0
VERTEX
  8
0
 10
39074.06781722625
 20
-5918.307740810232
  0
VERTEX
  8
0
 10
39065.46594718526
 20
-5918.426303107339
  0
VERTEX
  8
0
 10
39056.86394702853
 20
-5918.541477119812
  0
VERTEX
  8
0
 10
39048.26188181392
 20
-5918.654956989969
  0
VERTEX
  8
0
 10
39039.6598165993
 20
-5918.541477119812
  0
VERTEX
  8
0
 10
39031.05781644255
 20
-5918.42630310734
  0
VERTEX
  8
0
 10
39022.45594640156
 20
-5918.307740810232
  0
VERTEX
  8
0
 10
39013.8542715342
 20
-5918.184096086175
  0
VERTEX
  8
0
 10
39005.25285689835
 20
-5918.053674792851
  0
VERTEX
  8
0
 10
38996.65176755188
 20
-5917.914782787942
  0
VERTEX
  8
0
 10
38988.05106855266
 20
-5917.765725929133
  0
VERTEX
  8
0
 10
38979.45082495858
 20
-5917.604810074107
  0
VERTEX
  8
0
 10
38970.8511018275
 20
-5917.430341080548
  0
VERTEX
  8
0
 10
38962.25196421731
 20
-5917.240624806136
  0
VERTEX
  8
0
 10
38953.65347718589
 20
-5917.033967108557
  0
VERTEX
  8
0
 10
38945.05570579109
 20
-5916.808673845494
  0
VERTEX
  8
0
 10
38936.45871509082
 20
-5916.56305087463
  0
VERTEX
  8
0
 10
38927.86257014293
 20
-5916.295404053647
  0
VERTEX
  8
0
 10
38919.26733600531
 20
-5916.004039240231
  0
VERTEX
  8
0
 10
38910.67307773582
 20
-5915.687262292065
  0
VERTEX
  8
0
 10
38902.07983858821
 20
-5915.343946859109
  0
VERTEX
  8
0
 10
38893.4875750828
 20
-5914.975225174649
  0
VERTEX
  8
0
 10
38884.89622217679
 20
-5914.582790988786
  0
VERTEX
  8
0
 10
38876.30571482737
 20
-5914.168338051618
  0
VERTEX
  8
0
 10
38867.71598799172
 20
-5913.733560113249
  0
VERTEX
  8
0
 10
38859.12697662703
 20
-5913.280150923775
  0
VERTEX
  8
0
 10
38850.53861569049
 20
-5912.8098042333
  0
VERTEX
  8
0
 10
38841.95084013927
 20
-5912.324213791922
  0
VERTEX
  8
0
 10
38833.36358493056
 20
-5911.825073349743
  0
VERTEX
  8
0
 10
38824.77678502156
 20
-5911.314076656861
  0
VERTEX
  8
0
 10
38816.19037536945
 20
-5910.792917463378
  0
VERTEX
  8
0
 10
38807.60429093141
 20
-5910.263289519394
  0
VERTEX
  8
0
 10
38799.01846666462
 20
-5909.726886575009
  0
VERTEX
  8
0
 10
38790.43283752628
 20
-5909.185402380323
  0
VERTEX
  8
0
 10
38781.84733847357
 20
-5908.640530685437
  0
VERTEX
  8
0
 10
38773.26190446366
 20
-5908.09396524045
  0
SEQEND
  8
0
  0
POLYLINE
  8
0
 66
     1
  0
VERTEX
  8
0
 10
39298.47632263652
 20
-6079.15878792632
 42
0.013323319944
  0
VERTEX
  8
0
 10
39048.2618818139
 20
-6071.727483020823
 42
0.013323319944
  0
VERTEX
  8
0
 10
38798.04744099129
 20
-6079.15878792632
  0
SEQEND
  8
0
  0
POLYLINE
  8
0
  6
CONTINUOUS
 66
     1
  0
VERTEX
  8
0
  6
CONTINUOUS
 10
38803.26189373482
 20
-6401.21838510661
  0
VERTEX
  8
0
  6
CONTINUOUS
 10
39048.2618818139
 20
-6401.21838510661
  0
VERTEX
  8
0
  6
CONTINUOUS
 10
39293.26186989299
 20
-6401.21838510661
  0
SEQEND
  8
0
  6
CONTINUOUS
  0
POLYLINE
  8
0
  6
CONTINUOUS
 66
     1
  0
VERTEX
  8
0
  6
CONTINUOUS
 10
38803.26189373482
 20
-6382.46499062209
  0
VERTEX
  8
0
  6
CONTINUOUS
 10
39048.2618818139
 20
-6382.46499062209
  0
VERTEX
  8
0
  6
CONTINUOUS
 10
39293.26186989299
 20
-6382.46499062209
  0
SEQEND
  8
0
  6
CONTINUOUS
  0
LINE
  8
0
  6
CONTINUOUS
 10
39048.26188181389
 20
-4864.71800368784
 11
39293.26189254272
 21
-4864.71800368784
  0
POLYLINE
  8
0
  6
CONTINUOUS
 66
     1
  0
VERTEX
  8
0
  6
CONTINUOUS
 10
39293.26189254272
 20
-4879.912269140439
  0
VERTEX
  8
0
  6
CONTINUOUS
 10
39293.26189254272
 20
-4856.027914700489
 42
-0.417429979052
  0
VERTEX
  8
0
  6
CONTINUOUS
 10
39295.26189659584
 20
-4854.027910647379
  0
VERTEX
  8
0
  6
CONTINUOUS
 10
39321.2618896817
 20
-4854.027910647379
 42
-0.416549880933
  0
VERTEX
  8
0
  6
CONTINUOUS
 10
39323.26186989297
 20
-4856.02100757663
  0
VERTEX
  8
0
  6
CONTINUOUS
 10
39323.26186989296
 20
-5528.18531344053
 42
-0.413931751342
  0
VERTEX
  8
0
  6
CONTINUOUS
 10
39293.33474992606
 20
-5558.09396524045
  0
VERTEX
  8
0
  6
CONTINUOUS
 10
39048.26188181389
 20
-5558.09396524045
  0
SEQEND
  8
0
  6
CONTINUOUS
  0
POLYLINE
  8
0
 66
     1
  0
VERTEX
  8
0
 10
39048.26185797203
 20
-4879.912269140439
  0
VERTEX
  8
0
 10
39298.2540204731
 20
-4879.912269140439
 42
-0.409923942773
  0
VERTEX
  8
0
 10
39323.26186989297
 20
-4907.317708955091
  0
SEQEND
  8
0
  0
POLYLINE
  8
0
 66
     1
  0
VERTEX
  8
0
 10
39323.26186989296
 20
-4952.67705195065
 42
-0.380733167307
  0
VERTEX
  8
0
 10
39283.44788918304
 20
-4998.176142789456
 42
-0.04117623948
  0
VERTEX
  8
0
 10
39048.26185797203
 20
-5020.56922770118
  0
SEQEND
  8
0
  0
POLYLINE
  8
0
 66
     1
  0
VERTEX
  8
0
 10
39323.26186989297
 20
-5036.210583288971
 42
-0.401694990331
  0
VERTEX
  8
0
 10
39286.90256711236
 20
-5072.814881041324
 42
-0.021814873476
  0
VERTEX
  8
0
 10
39051.86006426311
 20
-5083.545123386921
 42
-0.373392447689
  0
VERTEX
  8
0
 10
39048.26188181389
 20
-5079.713080727865
  0
SEQEND
  8
0
  0
POLYLINE
  8
0
  6
CONTINUOUS
 66
     1
  0
VERTEX
  8
0
  6
CONTINUOUS
 10
39323.26186989296
 20
-5528.18531344051
  0
VERTEX
  8
0
  6
CONTINUOUS
 10
39323.26186989294
 20
-5554.493015505041
  0
VERTEX
  8
0
  6
CONTINUOUS
 10
39323.26186989294
 20
-5554.495459295469
 42
-0.414424386707
  0
VERTEX
  8
0
  6
CONTINUOUS
 10
39321.26185797201
 20
-5556.4954337585
  0
VERTEX
  8
0
  6
CONTINUOUS
 10
39312.78186583982
 20
-5556.488102174959
 42
-0.437027272251
  0
VERTEX
  8
0
  6
CONTINUOUS
 10
39310.63119815518
 20
-5554.4954337585
  0
VERTEX
  8
0
  6
CONTINUOUS
 10
39310.63120041337
 20
-5552.59021381023
  0
SEQEND
  8
0
  6
CONTINUOUS
  0
ARC
  8
0
 10
39053.6309564217
 20
-2682.892709782809
 40
2245.863876348701
 50
269.863025102623
 51
276.895372538853
  0
POLYLINE
  8
0
 66
     1
  0
VERTEX
  8
0
 10
39874.45440564657
 20
-6322.864986837513
 42
0.41436330431
  0
VERTEX
  8
0
 10
39872.25608640938
 20
-6324.644950711972
  0
VERTEX
  8
0
 10
39836.46674044992
 20
-6664.82651730407
  0
VERTEX
  8
0
 10
39865.62493886835
 20
-6664.83054094063
  0
VERTEX
  8
0
 10
39917.32820452792
 20
-6327.371203397591
  0
SEQEND
  8
0
  0
POLYLINE
  8
0
 66
     1
  0
VERTEX
  8
0
 10
40383.83391901849
 20
-6291.519408629135
 42
0.455755160831
  0
VERTEX
  8
0
 10
40380.07653980876
 20
-6284.995233471242
  0
VERTEX
  8
0
 10
40365.98613855751
 20
-6282.238678544545
  0
SEQEND
  8
0
  0
POLYLINE
  8
0
 66
     1
  0
VERTEX
  8
0
 10
40334.23952149763
 20
-6279.14169077214
  0
VERTEX
  8
0
 10
40334.6145971106
 20
-6279.23129137864
  0
VERTEX
  8
0
 10
40334.98967792765
 20
-6279.320847673002
  0
VERTEX
  8
0
 10
40335.36476915287
 20
-6279.410315343086
  0
VERTEX
  8
0
 10
40335.73987599034
 20
-6279.499650076754
  0
VERTEX
  8
0
 10
40336.11500364415
 20
-6279.588807561865
  0
VERTEX
  8
0
 10
40336.49015731837
 20
-6279.677743486283
  0
VERTEX
  8
0
 10
40336.86534221708
 20
-6279.766413537867
  0
VERTEX
  8
0
 10
40337.24056354439
 20
-6279.85477340448
  0
VERTEX
  8
0
 10
40337.61582650437
 20
-6279.942778773981
  0
VERTEX
  8
0
 10
40337.99113630108
 20
-6280.030385334233
  0
VERTEX
  8
0
 10
40338.36649813864
 20
-6280.117548773094
  0
VERTEX
  8
0
 10
40338.7419172211
 20
-6280.20422477843
  0
VERTEX
  8
0
 10
40339.11739875257
 20
-6280.290369038099
  0
VERTEX
  8
0
 10
40339.49294793712
 20
-6280.375937239963
  0
VERTEX
  8
0
 10
40339.86856997883
 20
-6280.460885071882
  0
VERTEX
  8
0
 10
40340.2442700818
 20
-6280.545168221718
  0
VERTEX
  8
0
 10
40340.6200534501
 20
-6280.628742377333
  0
VERTEX
  8
0
 10
40340.99592528781
 20
-6280.711563226586
  0
VERTEX
  8
0
 10
40341.37189079903
 20
-6280.793586457341
  0
VERTEX
  8
0
 10
40341.74795518782
 20
-6280.874767757456
  0
VERTEX
  8
0
 10
40342.12412365829
 20
-6280.955062814795
  0
VERTEX
  8
0
 10
40342.5004014145
 20
-6281.034427317217
  0
VERTEX
  8
0
 10
40342.87679366054
 20
-6281.112816952585
  0
VERTEX
  8
0
 10
40343.2533056005
 20
-6281.190187408757
  0
VERTEX
  8
0
 10
40343.62994243847
 20
-6281.266494373597
  0
VERTEX
  8
0
 10
40344.00670937851
 20
-6281.341693534966
  0
VERTEX
  8
0
 10
40344.38361162472
 20
-6281.415740580724
  0
VERTEX
  8
0
 10
40344.76065438118
 20
-6281.488591198732
  0
VERTEX
  8
0
 10
40345.13784285197
 20
-6281.560201076853
  0
VERTEX
  8
0
 10
40345.51518224117
 20
-6281.630525902946
  0
VERTEX
  8
0
 10
40345.89267775288
 20
-6281.699521364872
  0
VERTEX
  8
0
 10
40346.27033459116
 20
-6281.767143150495
  0
VERTEX
  8
0
 10
40346.64815796011
 20
-6281.833346947674
  0
VERTEX
  8
0
 10
40347.02615306382
 20
-6281.89808844427
  0
VERTEX
  8
0
 10
40347.40432510635
 20
-6281.961323328143
  0
VERTEX
  8
0
 10
40347.78267929179
 20
-6282.023007287157
  0
VERTEX
  8
0
 10
40348.16122082424
 20
-6282.083096009173
  0
VERTEX
  8
0
 10
40348.53995490777
 20
-6282.141545182049
  0
VERTEX
  8
0
 10
40348.91888674647
 20
-6282.198310493649
  0
VERTEX
  8
0
 10
40349.29802154441
 20
-6282.253347631833
  0
VERTEX
  8
0
 10
40349.67736450569
 20
-6282.306612284462
  0
VERTEX
  8
0
 10
40350.05692083438
 20
-6282.358060139398
  0
VERTEX
  8
0
 10
40350.43669573457
 20
-6282.407646884501
  0
VERTEX
  8
0
 10
40350.81669441034
 20
-6282.455328207633
  0
VERTEX
  8
0
 10
40351.19692206578
 20
-6282.501059796654
  0
VERTEX
  8
0
 10
40351.57738390497
 20
-6282.544797339427
  0
VERTEX
  8
0
 10
40351.95808513198
 20
-6282.586496523812
  0
VERTEX
  8
0
 10
40352.33903095091
 20
-6282.626113037671
  0
VERTEX
  8
0
 10
40352.72022656583
 20
-6282.663602568862
  0
VERTEX
  8
0
 10
40353.10167718086
 20
-6282.69892080525
  0
VERTEX
  8
0
 10
40353.48338800002
 20
-6282.732023434694
  0
VERTEX
  8
0
 10
40353.86536422746
 20
-6282.762866145056
  0
VERTEX
  8
0
 10
40361.39105939976
 20
-6282.871941268883
  0
VERTEX
  8
0
 10
40376.27980645854
 20
-6278.695970769361
  0
VERTEX
  8
0
 10
40388.66938197161
 20
-6268.95535310206
  0
VERTEX
  8
0
 10
40396.05761332623
 20
-6256.019222655149
  0
SEQEND
  8
0
  0
POLYLINE
  8
0
 66
     1
  0
VERTEX
  8
0
 10
40492.20613888611
 20
-5976.783622321504
  0
VERTEX
  8
0
 10
40496.6219492743
 20
-5961.472540673561
 42
0.370477324366
  0
VERTEX
  8
0
 10
40477.67810291748
 20
-5908.898475860477
  0
SEQEND
  8
0
  0
DIMENSION
  8
1DIM
  2
*D414
 10
39323.26187108508
 20
-6814.82651730407
 11
39034.76188240996
 21
-6765.82651730407
 70
    32
 13
38746.26189373483
 23
-6664.82651730407
 33
0.0
 14
39323.26187108508
 24
-6664.82651730407
 34
0.0
  0
DIMENSION
  8
1DIM
  2
*D415
 10
38596.26189373483
 20
-6664.82651730407
 11
38547.26189373483
 21
-6445.404157193278
 70
    32
  1
440
 13
38746.26189135064
 23
-6225.981797082487
 33
0.0
 14
38746.26189373483
 24
-6664.82651730407
 34
0.0
 50
90.0
  0
DIMENSION
  8
1DIM
  2
*D416
 10
39323.26185916415
 20
-5758.09396524045
 11
39048.26188181391
 21
-5709.09396524045
 70
    32
 13
38773.26190446367
 23
-5908.09396524045
 33
0.0
 14
39323.26185916415
 24
-5908.09396524045
 34
0.0
  0
DIMENSION
  8
1DIM
  2
*D417
 10
39673.26190446367
 20
-6664.82651730407
 11
39624.26190446367
 21
-6360.469250348857
 70
    32
 13
39823.26190446367
 23
-6056.111983393644
 33
0.0
 14
39823.26190446367
 24
-6664.82651730407
 34
0.0
 50
90.0
  0
DIMENSION
  8
1DIM
  2
*D418
 10
40526.03284170564
 20
-6814.82651730407
 11
40174.64737308465
 21
-6765.82651730407
 70
    32
  1
705
 13
39823.26190446367
 23
-6664.82651730407
 33
0.0
 14
40526.03284170564
 24
-6664.82651730407
 34
0.0
  0
DIMENSION
  8
1DIM
  2
*D420
 10
40298.51777710412
 20
-5758.09396524045
 11
40060.88984078389
 21
-5709.09396524045
 70
    32
 13
39823.26190446367
 23
-5908.09396524045
 33
0.0
 14
40298.51777710412
 24
-5908.09396524045
 34
0.0
  0
DIMENSION
  8
1DIM
  2
*D421
 10
40676.03284170564
 20
-6664.82651730407
 11
40627.03284170564
 21
-6286.46024127226
 70
    32
 13
40526.03284170564
 23
-5908.09396524045
 33
0.0
 14
40526.03284170564
 24
-6664.82651730407
 34
0.0
 50
90.0
  0
POLYLINE
  8
0
 66
     1
  0
VERTEX
  8
0
 10
40391.27306640228
 20
-6090.339956914631
  0
VERTEX
  8
0
 10
40347.31218906365
 20
-6075.202262492285
 42
0.416524064188
  0
VERTEX
  8
0
 10
40340.92952408127
 20
-6078.276498378891
  0
VERTEX
  8
0
 10
40331.71539497438
 20
-6106.005792078306
 42
0.046471948007
  0
VERTEX
  8
0
 10
40301.39588223834
 20
-6271.47973002962
  0
SEQEND
  8
0
  0
POLYLINE
  8
0
 66
     1
  0
VERTEX
  8
0
 10
40347.31218906366
 20
-6075.202262492283
  0
VERTEX
  8
0
 10
40344.3239915804
 20
-6068.750529808565
  0
VERTEX
  8
0
 10
40344.93832958229
 20
-6067.266206566745
  0
VERTEX
  8
0
 10
40345.55272539948
 20
-6065.781867468798
  0
VERTEX
  8
0
 10
40346.16723549567
 20
-6064.297497029273
  0
VERTEX
  8
0
 10
40346.78191633456
 20
-6062.813079762723
  0
VERTEX
  8
0
 10
40347.39682437984
 20
-6061.3286001837
  0
VERTEX
  8
0
 10
40348.01201609523
 20
-6059.844042806759
  0
VERTEX
  8
0
 10
40348.62754794442
 20
-6058.359392146449
  0
VERTEX
  8
0
 10
40349.24347639111
 20
-6056.874632717324
  0
VERTEX
  8
0
 10
40349.85985789901
 20
-6055.389749033936
  0
VERTEX
  8
0
 10
40350.47674893181
 20
-6053.904725610836
  0
VERTEX
  8
0
 10
40351.09420595322
 20
-6052.419546962577
  0
VERTEX
  8
0
 10
40351.71228542694
 20
-6050.934197603714
  0
VERTEX
  8
0
 10
40352.33104381668
 20
-6049.448662048794
  0
VERTEX
  8
0
 10
40352.95053758612
 20
-6047.962924812373
  0
VERTEX
  8
0
 10
40353.57082319898
 20
-6046.476970409002
  0
VERTEX
  8
0
 10
40354.19195711896
 20
-6044.990783353233
  0
VERTEX
  8
0
 10
40354.81399580975
 20
-6043.50434815962
  0
VERTEX
  8
0
 10
40355.43699573506
 20
-6042.017649342713
  0
VERTEX
  8
0
 10
40356.06101335858
 20
-6040.530671417066
  0
VERTEX
  8
0
 10
40356.68610514403
 20
-6039.04339889723
  0
VERTEX
  8
0
 10
40357.3123275551
 20
-6037.555816297757
  0
VERTEX
  8
0
 10
40357.9397370555
 20
-6036.067908133201
  0
VERTEX
  8
0
 10
40358.56839010892
 20
-6034.579658918113
  0
VERTEX
  8
0
 10
40359.19834317906
 20
-6033.091053167045
  0
VERTEX
  8
0
 10
40359.82965272963
 20
-6031.60207539455
  0
VERTEX
  8
0
 10
40360.46237522434
 20
-6030.112710115181
  0
VERTEX
  8
0
 10
40361.09656712687
 20
-6028.622941843487
  0
VERTEX
  8
0
 10
40361.73228490094
 20
-6027.132755094023
  0
VERTEX
  8
0
 10
40362.36958501024
 20
-6025.642134381343
  0
VERTEX
  8
0
 10
40363.00852391848
 20
-6024.151064219995
  0
VERTEX
  8
0
 10
40363.64915808934
 20
-6022.659529124533
  0
VERTEX
  8
0
 10
40364.29154398655
 20
-6021.167513609511
  0
VERTEX
  8
0
 10
40364.9357380738
 20
-6019.675002189478
  0
VERTEX
  8
0
 10
40365.58179681478
 20
-6018.181979378989
  0
VERTEX
  8
0
 10
40366.22977667322
 20
-6016.688429692595
  0
VERTEX
  8
0
 10
40366.87973411279
 20
-6015.194337644848
  0
VERTEX
  8
0
 10
40367.5317255972
 20
-6013.699687750301
  0
VERTEX
  8
0
 10
40368.18580759017
 20
-6012.204464523506
  0
VERTEX
  8
0
 10
40368.84203655538
 20
-6010.708652479016
  0
VERTEX
  8
0
 10
40369.50046895653
 20
-6009.212236131382
  0
VERTEX
  8
0
 10
40370.16116125735
 20
-6007.715199995156
  0
VERTEX
  8
0
 10
40370.82416992151
 20
-6006.217528584891
  0
VERTEX
  8
0
 10
40371.48955141272
 20
-6004.71920641514
  0
VERTEX
  8
0
 10
40372.1573621947
 20
-6003.220218000453
  0
VERTEX
  8
0
 10
40372.82767716726
 20
-6001.7205751703
  0
VERTEX
  8
0
 10
40373.50072322183
 20
-6000.220514944224
  0
VERTEX
  8
0
 10
40374.17680205821
 20
-5998.720385177572
  0
VERTEX
  8
0
 10
40374.8562158985
 20
-5997.220534499575
  0
VERTEX
  8
0
 10
40375.53926696486
 20
-5995.721311539473
  0
VERTEX
  8
0
 10
40376.22625747939
 20
-5994.223064926501
  0
VERTEX
  8
0
 10
40376.91748966423
 20
-5992.726143289894
  0
VERTEX
  8
0
 10
40377.61326574151
 20
-5991.230895258888
  0
VERTEX
  8
0
 10
40378.31388793336
 20
-5989.737669462721
  0
VERTEX
  8
0
 10
40379.0196584619
 20
-5988.246814530627
  0
VERTEX
  8
0
 10
40379.73087954926
 20
-5986.758679091842
  0
VERTEX
  8
0
 10
40380.44785341758
 20
-5985.273611775604
  0
VERTEX
  8
0
 10
40381.17088228897
 20
-5983.791961211146
  0
VERTEX
  8
0
 10
40381.90026838558
 20
-5982.314076027707
  0
VERTEX
  8
0
 10
40382.63631392952
 20
-5980.840304854522
  0
VERTEX
  8
0
 10
40383.37932114292
 20
-5979.370996320827
  0
VERTEX
  8
0
 10
40384.12959224793
 20
-5977.906499055856
  0
VERTEX
  8
0
 10
40384.88742946665
 20
-5976.447161688849
  0
VERTEX
  8
0
 10
40385.65313502122
 20
-5974.993332849039
  0
VERTEX
  8
0
 10
40386.42701113376
 20
-5973.545361165661
  0
VERTEX
  8
0
 10
40387.20936002642
 20
-5972.103595267956
  0
VERTEX
  8
0
 10
40388.00048392131
 20
-5970.668383785154
  0
VERTEX
  8
0
 10
40388.80068504056
 20
-5969.240075346495
  0
VERTEX
  8
0
 10
40389.61026560629
 20
-5967.819018581215
  0
VERTEX
  8
0
 10
40390.42952784066
 20
-5966.405562118547
  0
VERTEX
  8
0
 10
40391.25877396577
 20
-5965.000054587731
  0
VERTEX
  8
0
 10
40392.09830620375
 20
-5963.602844617999
  0
VERTEX
  8
0
 10
40392.94842677674
 20
-5962.21428083859
  0
VERTEX
  8
0
 10
40393.80943790686
 20
-5960.834711878739
  0
VERTEX
  8
0
 10
40394.68164181625
 20
-5959.464486367682
  0
VERTEX
  8
0
 10
40395.56534072702
 20
-5958.103952934654
  0
VERTEX
  8
0
 10
40396.46083686131
 20
-5956.753460208893
  0
VERTEX
  8
0
 10
40397.36843244125
 20
-5955.413356819635
  0
VERTEX
  8
0
 10
40398.28842968895
 20
-5954.083991396113
  0
VERTEX
  8
0
 10
40399.22113082657
 20
-5952.765712567567
  0
VERTEX
  8
0
 10
40400.16683807621
 20
-5951.45886896323
  0
VERTEX
  8
0
 10
40401.12585366001
 20
-5950.163809212339
  0
VERTEX
  8
0
 10
40402.09847980009
 20
-5948.880881944131
  0
VERTEX
  8
0
 10
40403.08501871859
 20
-5947.610435787841
  0
VERTEX
  8
0
 10
40404.08577263765
 20
-5946.352819372704
  0
VERTEX
  8
0
 10
40405.10104377937
 20
-5945.108381327958
  0
VERTEX
  8
0
 10
40406.13113436589
 20
-5943.87747028284
  0
VERTEX
  8
0
 10
40407.17634661934
 20
-5942.660434866581
  0
VERTEX
  8
0
 10
40408.23698276184
 20
-5941.457623708422
  0
VERTEX
  8
0
 10
40409.31334501553
 20
-5940.269385437598
  0
VERTEX
  8
0
 10
40410.40573560254
 20
-5939.096068683343
  0
VERTEX
  8
0
 10
40411.51445674498
 20
-5937.938022074894
  0
VERTEX
  8
0
 10
40412.639810665
 20
-5936.795594241488
  0
VERTEX
  8
0
 10
40413.78209958472
 20
-5935.669133812361
  0
VERTEX
  8
0
 10
40414.94162410811
 20
-5934.558987806423
  0
VERTEX
  8
0
 10
40416.11830948441
 20
-5933.465129700002
  0
VERTEX
  8
0
 10
40417.31122704447
 20
-5932.386683173852
  0
VERTEX
  8
0
 10
40418.51932998492
 20
-5931.32265434478
  0
VERTEX
  8
0
 10
40419.74157150235
 20
-5930.272049329591
  0
VERTEX
  8
0
 10
40420.97690479334
 20
-5929.233874245092
  0
VERTEX
  8
0
 10
40422.22428305451
 20
-5928.20713520809
  0
VERTEX
  8
0
 10
40423.48265948247
 20
-5927.190838335392
  0
VERTEX
  8
0
 10
40424.75098727378
 20
-5926.183989743802
  0
VERTEX
  8
0
 10
40426.02821962507
 20
-5925.18559555013
  0
VERTEX
  8
0
 10
40427.31330973291
 20
-5924.19466187118
  0
VERTEX
  8
0
 10
40428.60521079393
 20
-5923.210194823759
  0
VERTEX
  8
0
 10
40429.90287600472
 20
-5922.231200524674
  0
VERTEX
  8
0
 10
40431.20525856185
 20
-5921.256685090731
  0
VERTEX
  8
0
 10
40432.51131166196
 20
-5920.285654638737
  0
VERTEX
  8
0
 10
40433.81998850163
 20
-5919.317115285498
  0
VERTEX
  8
0
 10
40435.13024227744
 20
-5918.350073147823
  0
VERTEX
  8
0
 10
40477.67810291745
 20
-5908.898475860474
  0
SEQEND
  8
0
  0
POLYLINE
  8
0
 66
     1
  0
VERTEX
  8
0
 10
40336.53236067721
 20
-6091.509462022107
 42
-0.029197558308
  0
VERTEX
  8
0
 10
40200.02703530969
 20
-6060.294232576751
 42
0.52888788815
  0
VERTEX
  8
0
 10
40066.13197872524
 20
-6170.755377186611
  0
VERTEX
  8
0
 10
40072.53747343439
 20
-6240.20593607668
  0
SEQEND
  8
0
  0
POLYLINE
  8
0
 66
     1
  0
VERTEX
  8
0
 10
40359.51152005586
 20
-6362.156778441366
  0
VERTEX
  8
0
 10
40359.34791095168
 20
-6362.607180516269
  0
VERTEX
  8
0
 10
40359.16813914331
 20
-6363.056669332381
  0
VERTEX
  8
0
 10
40358.97202533133
 20
-6363.504440397277
  0
VERTEX
  8
0
 10
40358.75944010664
 20
-6363.949663332733
  0
VERTEX
  8
0
 10
40358.53030712812
 20
-6364.39148548753
  0
VERTEX
  8
0
 10
40358.28460601048
 20
-6364.829035953148
  0
VERTEX
  8
0
 10
40358.02237486778
 20
-6365.261429958266
  0
VERTEX
  8
0
 10
40357.74371245929
 20
-6365.687773609841
  0
VERTEX
  8
0
 10
40357.44877988785
 20
-6366.107168940547
  0
VERTEX
  8
0
 10
40357.13780180537
 20
-6366.518719214542
  0
VERTEX
  8
0
 10
40356.81106708557
 20
-6366.921534436377
  0
VERTEX
  8
0
 10
40356.46892893129
 20
-6367.314737001316
  0
VERTEX
  8
0
 10
40356.11180439185
 20
-6367.697467419896
  0
VERTEX
  8
0
 10
40355.74017327477
 20
-6368.068890045261
  0
VERTEX
  8
0
 10
40355.35457644623
 20
-6368.42819872888
  0
VERTEX
  8
0
 10
40354.95561352521
 20
-6368.77462232897
  0
VERTEX
  8
0
 10
40354.54393998663
 20
-6369.107429996153
  0
VERTEX
  8
0
 10
40354.12026369967
 20
-6369.425936162946
  0
VERTEX
  8
0
 10
40353.68534093776
 20
-6369.729505167277
  0
VERTEX
  8
0
 10
40353.23997190665
 20
-6370.017555445635
  0
VERTEX
  8
0
 10
40352.78499584556
 20
-6370.289563238192
  0
VERTEX
  8
0
 10
40352.32128576413
 20
-6370.545065756522
  0
VERTEX
  8
0
 10
40351.84974288473
 20
-6370.783663773755
  0
VERTEX
  8
0
 10
40351.37129086354
 20
-6371.005023607242
  0
VERTEX
  8
0
 10
40350.88686986776
 20
-6371.208878474545
  0
VERTEX
  8
0
 10
40350.39743058736
 20
-6371.395029214574
  0
VERTEX
  8
0
 10
40349.90392825897
 20
-6371.563344376746
  0
VERTEX
  8
0
 10
40349.40731677826
 20
-6371.713759691666
  0
VERTEX
  8
0
 10
40348.90854297278
 20
-6371.846276946948
  0
VERTEX
  8
0
 10
40348.40854110231
 20
-6371.960962300896
  0
VERTEX
  8
0
 10
40347.90822764779
 20
-6372.057944075059
  0
VERTEX
  8
0
 10
40347.40849644177
 20
-6372.137410073376
  0
VERTEX
  8
0
 10
40346.91021418627
 20
-6372.199604481351
  0
VERTEX
  8
0
 10
40346.41421639424
 20
-6372.244824402672
  0
VERTEX
  8
0
 10
40345.92130378266
 20
-6372.273416093454
  0
VERTEX
  8
0
 10
40345.43223913635
 20
-6372.285770955548
  0
VERTEX
  8
0
 10
40344.94774465259
 20
-6372.282321350262
  0
VERTEX
  8
0
 10
40344.46849976863
 20
-6372.263536292565
  0
VERTEX
  8
0
 10
40328.30973263097
 20
-6370.567110143117
  0
VERTEX
  8
0
 10
40310.72463064107
 20
-6368.718840966048
  0
VERTEX
  8
0
 10
40293.1395286512
 20
-6366.870571788977
  0
VERTEX
  8
0
 10
40275.5544266613
 20
-6365.022302611908
  0
VERTEX
  8
0
 10
40257.9693246714
 20
-6363.174033434837
  0
VERTEX
  8
0
 10
40240.38422268152
 20
-6361.325764257768
  0
VERTEX
  8
0
 10
40222.79912069163
 20
-6359.477495080697
  0
VERTEX
  8
0
 10
40205.21401870173
 20
-6357.629225903627
  0
VERTEX
  8
0
 10
40187.62891671185
 20
-6355.780956726557
  0
VERTEX
  8
0
 10
40170.04381472195
 20
-6353.932687549487
  0
VERTEX
  8
0
 10
40152.45871273206
 20
-6352.084418372417
  0
VERTEX
  8
0
 10
40134.87361074218
 20
-6350.236149195347
  0
VERTEX
  8
0
 10
40117.28850875228
 20
-6348.387880018277
  0
VERTEX
  8
0
 10
40099.70340676238
 20
-6346.539610841206
  0
VERTEX
  8
0
 10
40082.11830477251
 20
-6344.691341664136
  0
VERTEX
  8
0
 10
40064.53320278261
 20
-6342.843072487066
  0
VERTEX
  8
0
 10
40046.94810079271
 20
-6340.994803309995
  0
VERTEX
  8
0
 10
40029.36299880283
 20
-6339.146534132926
  0
VERTEX
  8
0
 10
40011.77789681294
 20
-6337.298264955855
  0
VERTEX
  8
0
 10
39994.19279482304
 20
-6335.449995778786
  0
VERTEX
  8
0
 10
39976.60769283316
 20
-6333.601726601715
  0
VERTEX
  8
0
 10
39959.02259084326
 20
-6331.753457424646
  0
VERTEX
  8
0
 10
39941.43748885336
 20
-6329.905188247575
  0
VERTEX
  8
0
 10
39923.85238686347
 20
-6328.056919070506
  0
VERTEX
  8
0
 10
39906.26728487359
 20
-6326.208649893435
  0
VERTEX
  8
0
 10
39888.68218288369
 20
-6324.360380716365
  0
VERTEX
  8
0
 10
39871.09708089379
 20
-6322.512111539294
  0
VERTEX
  8
0
 10
39853.51197890392
 20
-6320.663842362225
  0
VERTEX
  8
0
 10
39835.92687691402
 20
-6318.815573185154
  0
VERTEX
  8
0
 10
39827.62410540692
 20
-6317.942308653132
  0
VERTEX
  8
0
 10
39827.45912394622
 20
-6317.91954641168
  0
VERTEX
  8
0
 10
39827.29404363056
 20
-6317.891111192777
  0
VERTEX
  8
0
 10
39827.12915163747
 20
-6317.856958101349
  0
VERTEX
  8
0
 10
39826.96474056265
 20
-6317.817061388288
  0
VERTEX
  8
0
 10
39826.80110683522
 20
-6317.771415082351
  0
VERTEX
  8
0
 10
39826.63854905428
 20
-6317.720033465017
  0
VERTEX
  8
0
 10
39826.47736626443
 20
-6317.662951377481
  0
VERTEX
  8
0
 10
39826.31785619049
 20
-6317.600224351459
  0
VERTEX
  8
0
 10
39826.16031345224
 20
-6317.531928558071
  0
VERTEX
  8
0
 10
39826.00502778112
 20
-6317.458160572018
  0
VERTEX
  8
0
 10
39825.85228226126
 20
-6317.379036951318
  0
VERTEX
  8
0
 10
39825.70235161695
 20
-6317.294693635846
  0
VERTEX
  8
0
 10
39825.55550056835
 20
-6317.205285171053
  0
VERTEX
  8
0
 10
39825.41198227573
 20
-6317.110983766143
  0
VERTEX
  8
0
 10
39825.27203689192
 20
-6317.01197819869
  0
VERTEX
  8
0
 10
39825.13589023969
 20
-6316.90847258026
  0
VERTEX
  8
0
 10
39825.00375262956
 20
-6316.80068499963
  0
VERTEX
  8
0
 10
39824.87581783038
 20
-6316.688846062092
  0
VERTEX
  8
0
 10
39824.75226220254
 20
-6316.573197344583
  0
VERTEX
  8
0
 10
39824.63324400083
 20
-6316.453989787393
  0
VERTEX
  8
0
 10
39824.51890285083
 20
-6316.331482043571
  0
VERTEX
  8
0
 10
39824.40935940008
 20
-6316.2059388072
  0
VERTEX
  8
0
 10
39824.30460893133
 20
-6316.077494402315
  0
VERTEX
  8
0
 10
39824.20378917208
 20
-6315.9451081644
  0
VERTEX
  8
0
 10
39824.10688632389
 20
-6315.808626400101
  0
VERTEX
  8
0
 10
39824.01413606305
 20
-6315.668218481328
  0
VERTEX
  8
0
 10
39823.92576454154
 20
-6315.524071209391
  0
VERTEX
  8
0
 10
39823.84198681504
 20
-6315.376388161288
  0
VERTEX
  8
0
 10
39823.76300532367
 20
-6315.225388868702
  0
VERTEX
  8
0
 10
39823.68900844607
 20
-6315.071307834598
  0
VERTEX
  8
0
 10
39823.6201691466
 20
-6314.914393395132
  0
VERTEX
  8
0
 10
39823.55664373501
 20
-6314.754906437453
  0
VERTEX
  8
0
 10
39823.49857075595
 20
-6314.593118986554
  0
VERTEX
  8
0
 10
39823.44607002445
 20
-6314.429312676849
  0
VERTEX
  8
0
 10
39823.39924182073
 20
-6314.263777126236
  0
VERTEX
  8
0
 10
39823.35816625578
 20
-6314.096808232271
  0
VERTEX
  8
0
 10
39823.32290281588
 20
-6313.928706411429
  0
VERTEX
  8
0
 10
39823.29349009159
 20
-6313.759774803428
  0
VERTEX
  8
0
 10
39823.26994569341
 20
-6313.590317463069
  0
VERTEX
  8
0
 10
39823.25226635372
 20
-6313.420637562039
  0
VERTEX
  8
0
 10
39823.24042821064
 20
-6313.251035622695
  0
VERTEX
  8
0
 10
39823.23438726759
 20
-6313.081807804915
  0
VERTEX
  8
0
 10
39823.23408001907
 20
-6312.913244265763
  0
VERTEX
  8
0
 10
39823.23942423044
 20
-6312.745627609999
  0
VERTEX
  8
0
 10
39823.25031985833
 20
-6312.579231447474
  0
VERTEX
  8
0
 10
39823.33592911413
 20
-6311.752593691574
  0
VERTEX
  8
0
 10
39823.62163154672
 20
-6309.034318445028
  0
VERTEX
  8
0
 10
39823.9073339793
 20
-6306.316043198479
  0
VERTEX
  8
0
 10
39824.19303641187
 20
-6303.597767951933
  0
VERTEX
  8
0
 10
39824.47873884445
 20
-6300.879492705387
  0
VERTEX
  8
0
 10
39824.76444127702
 20
-6298.161217458841
  0
VERTEX
  8
0
 10
39825.0501437096
 20
-6295.442942212292
  0
VERTEX
  8
0
 10
39825.33584614217
 20
-6292.724666965746
  0
VERTEX
  8
0
 10
39825.62154857475
 20
-6290.0063917192
  0
VERTEX
  8
0
 10
39825.90725100732
 20
-6287.288116472654
  0
VERTEX
  8
0
 10
39826.1929534399
 20
-6284.569841226105
  0
VERTEX
  8
0
 10
39826.47865587248
 20
-6281.851565979559
  0
VERTEX
  8
0
 10
39826.76435830505
 20
-6279.133290733013
  0
VERTEX
  8
0
 10
39827.05006073763
 20
-6276.415015486467
  0
VERTEX
  8
0
 10
39827.33576317021
 20
-6273.696740239919
  0
VERTEX
  8
0
 10
39827.62146560278
 20
-6270.978464993373
  0
VERTEX
  8
0
 10
39827.90716803536
 20
-6268.260189746827
  0
VERTEX
  8
0
 10
39828.19287046793
 20
-6265.541914500281
  0
VERTEX
  8
0
 10
39828.47857290051
 20
-6262.823639253732
  0
VERTEX
  8
0
 10
39828.76427533308
 20
-6260.105364007186
  0
VERTEX
  8
0
 10
39829.04997776566
 20
-6257.38708876064
  0
VERTEX
  8
0
 10
39829.33568019823
 20
-6254.668813514094
  0
VERTEX
  8
0
 10
39829.62138263082
 20
-6251.950538267545
  0
VERTEX
  8
0
 10
39829.90708506338
 20
-6249.232263020999
  0
VERTEX
  8
0
 10
39830.19278749597
 20
-6246.513987774453
  0
VERTEX
  8
0
 10
39830.47848992853
 20
-6243.795712527904
  0
VERTEX
  8
0
 10
39830.76419236112
 20
-6241.077437281358
  0
VERTEX
  8
0
 10
39831.04989479368
 20
-6238.359162034812
  0
VERTEX
  8
0
 10
39831.33559722627
 20
-6235.640886788266
  0
VERTEX
  8
0
 10
39831.62129965883
 20
-6232.922611541718
  0
VERTEX
  8
0
 10
39831.67304770868
 20
-6232.448486391338
  0
VERTEX
  8
0
 10
39831.69624167163
 20
-6232.292943167827
  0
VERTEX
  8
0
 10
39831.7246616197
 20
-6232.136433171431
  0
VERTEX
  8
0
 10
39831.75843689049
 20
-6231.979194391009
  0
VERTEX
  8
0
 10
39831.79768388475
 20
-6231.82147804151
  0
VERTEX
  8
0
 10
39831.84250466742
 20
-6231.663547813988
  0
VERTEX
  8
0
 10
39831.89298560537
 20
-6231.505678965573
  0
VERTEX
  8
0
 10
39831.94919606206
 20
-6231.348157249009
  0
VERTEX
  8
0
 10
39832.01118716942
 20
-6231.191277683962
  0
VERTEX
  8
0
 10
39832.07899069803
 20
-6231.035343175184
  0
VERTEX
  8
0
 10
39832.15261804643
 20
-6230.880662985706
  0
VERTEX
  8
0
 10
39832.23205936945
 20
-6230.727551076204
  0
VERTEX
  8
0
 10
39832.31728286506
 20
-6230.57632432483
  0
VERTEX
  8
0
 10
39832.40823423689
 20
-6230.427300644747
  0
VERTEX
  8
0
 10
39832.5048363479
 20
-6230.280797019324
  0
VERTEX
  8
0
 10
39832.60698907817
 20
-6230.137127477533
  0
VERTEX
  8
0
 10
39832.71456939623
 20
-6229.996601034093
  0
VERTEX
  8
0
 10
39832.82743165072
 20
-6229.859519620649
  0
VERTEX
  8
0
 10
39832.94540808473
 20
-6229.726176035335
  0
VERTEX
  8
0
 10
39833.06830957195
 20
-6229.596851938655
  0
VERTEX
  8
0
 10
39833.19592656919
 20
-6229.471815923519
  0
VERTEX
  8
0
 10
39833.32803027621
 20
-6229.351321686526
  0
VERTEX
  8
0
 10
39833.46437398993
 20
-6229.235606326276
  0
VERTEX
  8
0
 10
39833.6046946362
 20
-6229.124888792453
  0
VERTEX
  8
0
 10
39833.74871445942
 20
-6229.019368506938
  0
VERTEX
  8
0
 10
39833.89614284699
 20
-6228.919224175117
  0
VERTEX
  8
0
 10
39834.04667826399
 20
-6228.824612802186
  0
VERTEX
  8
0
 10
39834.20001027076
 20
-6228.735668925397
  0
VERTEX
  8
0
 10
39834.35582159609
 20
-6228.652504069298
  0
VERTEX
  8
0
 10
39834.51379023716
 20
-6228.575206426976
  0
VERTEX
  8
0
 10
39834.6735915587
 20
-6228.503840766244
  0
VERTEX
  8
0
 10
39834.83490036346
 20
-6228.438448555904
  0
VERTEX
  8
0
 10
39834.99739290879
 20
-6228.379048303555
  0
VERTEX
  8
0
 10
39835.16074884472
 20
-6228.3256360931
  0
VERTEX
  8
0
 10
39835.32465305237
 20
-6228.278186307276
  0
VERTEX
  8
0
 10
39835.48879736357
 20
-6228.236652518016
  0
VERTEX
  8
0
 10
39835.65288214574
 20
-6228.200968525643
  0
VERTEX
  8
0
 10
39835.81661773923
 20
-6228.171049526352
  0
VERTEX
  8
0
 10
39835.97972573747
 20
-6228.146793386705
  0
VERTEX
  8
0
 10
39836.14194010339
 20
-6228.128082003371
  0
VERTEX
  8
0
 10
39836.30300811873
 20
-6228.114782726502
  0
VERTEX
  8
0
 10
39836.46269116575
 20
-6228.1067498257
  0
VERTEX
  8
0
 10
39836.62076534349
 20
-6228.103825978335
  0
VERTEX
  8
0
 10
39836.77702192309
 20
-6228.10584376139
  0
VERTEX
  8
0
 10
40137.75231177136
 20
-6244.883675535646
  0
VERTEX
  8
0
 10
40187.28163398206
 20
-6250.934451078827
  0
VERTEX
  8
0
 10
40236.59628867188
 20
-6258.670588376421
  0
VERTEX
  8
0
 10
40285.61048152677
 20
-6268.079222895817
  0
VERTEX
  8
0
 10
40334.23952149763
 20
-6279.14169077214
  0
SEQEND
  8
0
  0
POLYLINE
  8
0
 66
     1
  0
VERTEX
  8
0
 10
40107.85665930532
 20
-6242.055985322833
  0
VERTEX
  8
0
 10
40100.98405458232
 20
-6167.540935021
 42
-0.528886292566
  0
VERTEX
  8
0
 10
40190.2474275689
 20
-6093.900173605633
 42
0.028330852485
  0
VERTEX
  8
0
 10
40326.51651853944
 20
-6125.309837824348
  0
SEQEND
  8
0
  0
POLYLINE
  8
0
 66
     1
  0
VERTEX
  8
0
 10
40359.51152005586
 20
-6362.156778441366
  0
VERTEX
  8
0
 10
40492.20613888611
 20
-5976.783622321504
 42
-0.414011700569
  0
VERTEX
  8
0
 10
40504.89743654143
 20
-5970.57740923957
  0
VERTEX
  8
0
 10
40519.29126209093
 20
-5975.533578159807
 42
-0.407762180568
  0
VERTEX
  8
0
 10
40525.55477407001
 20
-5988.049126360484
  0
VERTEX
  8
0
 10
40408.41311520834
 20
-6352.1708830377
 42
0.10592863243
  0
VERTEX
  8
0
 10
40400.05414223827
 20
-6437.81567598737
  0
VERTEX
  8
0
 10
40428.17342710424
 20
-6664.82651730407
  0
VERTEX
  8
0
 10
40398.34952921807
 20
-6664.82651730407
  0
VERTEX
  8
0
 10
40353.87776232635
 20
-6423.529830909726
  0
VERTEX
  8
0
 10
39909.74741404734
 20
-6376.849867868704
  0
SEQEND
  8
0
  0
POLYLINE
  8
0
 66
     1
  0
VERTEX
  8
0
 10
40462.30738217025
 20
-5908.170034678923
 42
0.022656483898
  0
VERTEX
  8
0
 10
40388.36011562012
 20
-6099.05673554222
 42
0.021476189103
  0
VERTEX
  8
0
 10
40334.23952149763
 20
-6279.14169077214
  0
SEQEND
  8
0
  0
LINE
  8
0
 10
39048.2618818139
 20
-5926.646450335961
 11
39048.26190446366
 21
-6228.106305605461
  0
LINE
  8
0
 10
39048.26188181389
 20
-5079.713080727865
 11
39048.26185797203
 21
-4879.912269140439
  0
ENDSEC
  0
EOF
